<svg xmlns="http://www.w3.org/2000/svg">
<defs>
<font id="DBAdmanX-Bold" horiz-adv-x="0" >
  <font-face 
    font-family="DB Adman X"
    font-weight="700"
    font-stretch="normal"
    units-per-em="1000"
    panose-1="2 0 5 6 9 0 0 2 0 4"
    ascent="800"
    descent="-200"
    x-height="366"
    cap-height="528"
    bbox="-488 -384.002 967 867"
    underline-thickness="20"
    underline-position="-113"
    unicode-range="U+0020-U+F882"
  />
<missing-glyph horiz-adv-x="414" 
d="M422 400v-14h6c4.66699 0 7 3 7 9c0 0.666992 -0.5 1.66699 -1.5 3s-2.83301 2 -5.5 2h-6zM425 385h-3v-14h-5v34h11c8 0 12 -3.33301 12 -10c0 -4.66699 -1 -7.5 -3 -8.5s-4.33301 -1.5 -7 -1.5l10 -14h-5zM428 366c8.66699 0 14.5 2.33301 17.5 7s4.5 9 4.5 13
c0 16 -7.33301 24 -22 24c-15.333 0 -23 -8 -23 -24c0 -5.33301 1.83301 -10 5.5 -14s9.5 -6 17.5 -6zM428 413c8.66699 0 15 -2.66699 19 -8s6 -11.666 6 -18.999c0 -5.33301 -2 -10.5 -6 -15.5s-10.333 -7.5 -19 -7.5c-8 0 -14.333 2.5 -19 7.5s-7 10.167 -7 15.5
c0 7.33301 2.33301 13.666 7 18.999s11 8 19 8zM201 316c10.667 -0.666992 23.1689 -1.99805 37.502 -3.99805s28.666 -4.33301 42.999 -7s27.5 -5.83398 39.5 -9.50098s21 -7.83398 27 -12.501c-13.333 26.667 -34 47.167 -62 61.5s-56.667 21.5 -86 21.5
c-22.667 0 -44.334 -4.33301 -65.001 -13s-37.667 -22 -51 -40c12 1.33301 24 2.33301 36 3s24 1 36 1h22.5c7.66699 0 15.167 -0.333008 22.5 -1zM375.002 395.002l-0.000976562 -142c-32 10 -68.5 18.5 -109.5 25.5s-84.5 10.5 -130.5 10.5c-32 0 -63.333 -2 -94 -6
c4 14.667 10.333 28.834 19 42.501s19.667 25.667 33 36s28.833 18.5 46.5 24.5s37.167 9 58.5 9c20.667 0 39.334 -2.33301 56.001 -7s31.167 -10.334 43.5 -17.001s22.833 -14 31.5 -22s15 -15 19 -21c0 -0.666992 0 1.5 0 6.5s-0.166992 11.167 -0.5 18.5
s-0.5 15 -0.5 23v19h28zM153.001 127.002c0 5.33301 -1.83301 9.33301 -5.5 12s-7.5 4 -11.5 4c-4.66699 0 -8.66699 -1.33301 -12 -4s-5 -6.66699 -5 -12s1.66699 -9.16602 5 -11.499s7.33301 -3.5 12 -3.5c4 0 7.83301 1.16699 11.5 3.5s5.5 6.16602 5.5 11.499z

<glyph glyph-name="plusminus" unicode="&#x2b;&#x2d;" horiz-adv-x="395" 
d="M237 240v-140h-79v140h-140v79h140v140h79v-140h140v-79h-140zM377 79v-79h-359v79h359z" />
    <glyph glyph-name="ellipsis" unicode="&#x2e;&#x2e;&#x2e;" horiz-adv-x="507" 
d="M479 45c0 -16.667 -5.66699 -30.667 -17 -42s-25.333 -17 -42 -17s-30.667 5.66699 -42 17s-17 25 -17 41c0 16.667 5.66699 30.667 17 42s25.333 17 42 17s30.667 -5.66699 42 -17s17 -25 17 -41zM313 45c0 -16.667 -5.66699 -30.667 -17 -42s-25.333 -17 -42 -17
s-30.667 5.66699 -42 17s-17 25 -17 41c0 16.667 5.66699 30.667 17 42s25.333 17 42 17s30.5 -5.66699 41.5 -17s16.5 -25 16.5 -41h1zM147 45c0 -16.667 -5.66699 -30.667 -17 -42s-25.333 -17 -42 -17s-30.667 5.66699 -42 17s-17 25 -17 41
c0 16.667 5.66699 30.667 17 42s25.333 17 42 17s30.5 -5.66699 41.5 -17s16.5 -25 16.5 -41h1z" />
    <glyph glyph-name="lessequal" unicode="&#x3c;&#x3d;" horiz-adv-x="400" 
d="M24 309v70l353 176v-91l-236 -120l236 -128v-91zM377 76v-91l-353 184v98z" />
    <glyph glyph-name="greaterequal" unicode="&#x3e;&#x3d;" horiz-adv-x="400" 
d="M24 125v91l236 128l-236 120v91l353 -176v-70zM377 267v-98l-353 -184v91z" />
    <glyph glyph-name="fongmanfunnuthai" unicode="&#xe4f;&#x22;" horiz-adv-x="562" 
d="M302 509l-9 154h72l-9 -154h-54zM203 509l-9 154h72l-11 -154h-52zM524 237c0 -33.333 -6.5 -64.833 -19.5 -94.5s-30.5 -55.5 -52.5 -77.5s-47.833 -39.5 -77.5 -52.5s-61.167 -19.5 -94.5 -19.5s-64.833 6.5 -94.5 19.5s-55.5 30.5 -77.5 52.5s-39.5 47.833 -52.5 77.5
s-19.5 61.167 -19.5 94.5s6.5 64.833 19.5 94.5s30.5 55.5 52.5 77.5s47.833 39.5 77.5 52.5s61.167 19.5 94.5 19.5s64.833 -6.5 94.5 -19.5s55.5 -30.5 77.5 -52.5s39.5 -47.833 52.5 -77.5s19.5 -61.167 19.5 -94.5zM403 237c0 -17.333 -3.16699 -33.333 -9.5 -48
s-15.166 -27.667 -26.499 -39s-24.5 -20.166 -39.5 -26.499s-30.833 -9.5 -47.5 -9.5c-17.333 0 -33.333 3.16699 -48 9.5s-27.667 15.166 -39 26.499s-20.166 24.333 -26.499 39s-9.5 30.667 -9.5 48c0 16.667 3.16699 32.5 9.5 47.5s15.166 28.167 26.499 39.5
s24.333 20.166 39 26.499s30.667 9.5 48 9.5c16.667 0 32.5 -3.16699 47.5 -9.5s28.167 -15.166 39.5 -26.499s20.166 -24.5 26.499 -39.5s9.5 -30.833 9.5 -47.5zM456 233c0 24.667 -4.66699 47.833 -14 69.5s-22 40.667 -38 57s-34.667 29.333 -56 39s-44 14.5 -68 14.5
s-46.667 -4.66699 -68 -14s-40 -22 -56 -38s-28.667 -34.667 -38 -56s-14 -44 -14 -68s4.66699 -46.667 14 -68s22 -40 38 -56s34.667 -28.667 56 -38s44 -14 68 -14s46.667 4.66699 68 14s39.833 22 55.5 38s28.167 34.667 37.5 56s14 44 14 68zM337 236.999
c0 15.333 -5.66699 28.666 -17 39.999s-24.666 17 -39.999 17s-28.666 -5.66699 -39.999 -17s-17 -24.666 -17 -39.999s5.66699 -28.666 17 -39.999s24.666 -17 39.999 -17s28.666 5.66699 39.999 17s17 24.666 17 39.999z" />
    <glyph glyph-name="dochadaphinthuthai" unicode="&#xe0e;&#xe3a;" horiz-adv-x="493" 
d="M336 -186c-28 19.333 -51.834 32.668 -71.501 40.001s-39.167 11 -58.5 11s-39.166 -3.66699 -59.499 -11s-44.5 -21 -72.5 -41l-53 70c36 24.667 68.333 42 97 52s58 15 88 15c42.667 0 82 -8.33301 118 -25l34 32v300c0 32 -11.333 58.167 -34 78.5s-53 30.5 -91 30.5
c-16.667 0 -33 -3.5 -49 -10.5s-30 -16.167 -42 -27.5l24 -25v-303h-139v91h42v180l-48 51c24.667 42 55.167 74.833 91.5 98.5s76.5 35.5 120.5 35.5c32 0 61.5 -5 88.5 -15s50.5 -23.667 70.5 -41s35.5 -38.333 46.5 -63s16.5 -51.334 16.5 -80.001v-333z
M464.999 -251.998c0 -16 -5.66699 -29.666 -17 -40.999s-24.666 -17 -39.999 -17c-16 0 -29.667 5.66699 -41 17s-17 24.666 -17 39.999c0 16 5.66699 29.667 17 41s24.666 17 39.999 17c16 0 29.667 -5.66699 41 -17s17 -25 17 -41v1z" />
    <glyph glyph-name="topatakphintuthai" unicode="&#xe0f;&#xe3a;" horiz-adv-x="493" 
d="M325 -189l-78 70.002l-78 -70l-131 117l54 62l80 -68l75 67l75 -67l37 31v304c0 32 -11.5 58 -34.5 78s-53.5 30 -91.5 30c-16.667 0 -33 -3.33301 -49 -10s-30 -15.667 -42 -27l24 -25v-303h-139v91h42v180l-48 51c25.333 42 56 74.833 92 98.5s76 35.5 120 35.5
c32 0 61.667 -5 89 -15s50.833 -23.833 70.5 -41.5s35 -38.834 46 -63.501s16.5 -51.334 16.5 -80.001v-330zM465 -251.998c0 -16 -5.66699 -29.666 -17 -40.999s-24.666 -17 -39.999 -17c-16 0 -29.667 5.66699 -41 17s-17 24.666 -17 39.999c0 16 5.66699 29.667 17 41
s24.666 17 39.999 17c16 0 29.667 -5.66699 41 -17s17 -25 17 -41v1z" />
    <glyph glyph-name="dochadasarauthai" unicode="&#xe0e;&#xe38;" horiz-adv-x="493" 
d="M336 -184c-28 19.333 -51.834 32.668 -71.501 40.001s-39.167 11 -58.5 11s-39.166 -3.66699 -59.499 -11s-44.5 -21 -72.5 -41l-53 71c36 24 68.333 41.167 97 51.5s58 15.5 88 15.5c42.667 0 82 -8.33301 118 -25l34 32v297c0 32 -11.333 58.167 -34 78.5
s-53 30.5 -91 30.5c-16.667 0 -33 -3.5 -49 -10.5s-30 -16.167 -42 -27.5l24 -25v-303h-139v91h42v180l-48 51c24.667 42 55.167 74.833 91.5 98.5s76.5 35.5 120.5 35.5c32 0 61.5 -5 88.5 -15s50.5 -23.667 70.5 -41s35.5 -38.333 46.5 -63s16.5 -51.334 16.5 -80.001
v-331zM363.999 -370.998v80h-41v91h83c13.333 0 24.833 -4.83301 34.5 -14.5s14.5 -21.167 14.5 -34.5v-122h-91z" />
    <glyph glyph-name="topataksarauthai" unicode="&#xe0f;&#xe38;" horiz-adv-x="493" 
d="M325 -189l-78 70.002l-78 -70l-131 117l54 62l80 -68l75 67l75 -67l37 31v304c0 32 -11.5 58 -34.5 78s-53.5 30 -91.5 30c-16.667 0 -33 -3.33301 -49 -10s-30 -15.667 -42 -27l24 -25v-303h-139v91h42v180l-48 51c25.333 42 56 74.833 92 98.5s76 35.5 120 35.5
c32 0 61.667 -5 89 -15s50.833 -23.833 70.5 -41.5s35 -38.834 46 -63.501s16.5 -51.334 16.5 -80.001v-330zM364 -370.998v80h-40v91h82c13.333 0 24.833 -4.83301 34.5 -14.5s14.5 -21.167 14.5 -34.5v-122h-91z" />
    <glyph glyph-name="dochadasarauuthai" unicode="&#xe0e;&#xe39;" horiz-adv-x="493" 
d="M336 -184c-28 19.333 -51.834 32.668 -71.501 40.001s-39.167 11 -58.5 11s-39.166 -3.66699 -59.499 -11s-44.5 -21 -72.5 -41l-53 71c36 24 68.333 41.167 97 51.5s58 15.5 88 15.5c42.667 0 82 -8.33301 118 -25l34 32v297c0 32 -11.333 58.167 -34 78.5
s-53 30.5 -91 30.5c-16.667 0 -33 -3.5 -49 -10.5s-30 -16.167 -42 -27.5l24 -25v-303h-139v91h42v180l-48 51c24.667 42 55.167 74.833 91.5 98.5s76.5 35.5 120.5 35.5c32 0 61.5 -5 88.5 -15s50.5 -23.667 70.5 -41s35.5 -38.333 46.5 -63s16.5 -51.334 16.5 -80.001
v-331zM454.999 -282.998c0 -14 -2.66699 -27.167 -8 -39.5s-12.833 -23 -22.5 -32s-20.667 -16.167 -33 -21.5s-25.5 -8 -39.5 -8c-13.333 0 -26.5 2.16699 -39.5 6.5s-24.5 10.5 -34.5 18.5s-18.167 17.833 -24.5 29.5s-9.5 24.5 -9.5 38.5h-41v91h130v-81
c0 -4.66699 1.33301 -8.66699 4 -12s6.66699 -5 12 -5c10.667 0 16 5.33301 16 16v82h90v-84v1z" />
    <glyph glyph-name="topataksarauuthai" unicode="&#xe0f;&#xe39;" horiz-adv-x="493" 
d="M325 -189l-78 70.002l-78 -70l-131 117l54 62l80 -68l75 67l75 -67l37 31v304c0 32 -11.5 58 -34.5 78s-53.5 30 -91.5 30c-16.667 0 -33 -3.33301 -49 -10s-30 -15.667 -42 -27l24 -25v-303h-139v91h42v180l-48 51c25.333 42 56 74.833 92 98.5s76 35.5 120 35.5
c32 0 61.667 -5 89 -15s50.833 -23.833 70.5 -41.5s35 -38.834 46 -63.501s16.5 -51.334 16.5 -80.001v-330zM455 -282.998c0 -14 -2.66699 -27.167 -8 -39.5s-12.833 -23 -22.5 -32s-20.667 -16.167 -33 -21.5s-25.5 -8 -39.5 -8c-13.333 0 -26.5 2.16699 -39.5 6.5
s-24.5 10.5 -34.5 18.5s-18.167 17.833 -24.5 29.5s-9.5 24.5 -9.5 38.5h-41v91h130v-81c0 -4.66699 1.33301 -8.66699 4 -12s6.66699 -5 12 -5c10.667 0 16 5.33301 16 16v82h90v-84v1z" />
    <glyph glyph-name=".notdef" horiz-adv-x="414" 
d="M422 400v-14h6c4.66699 0 7 3 7 9c0 0.666992 -0.5 1.66699 -1.5 3s-2.83301 2 -5.5 2h-6zM425 385h-3v-14h-5v34h11c8 0 12 -3.33301 12 -10c0 -4.66699 -1 -7.5 -3 -8.5s-4.33301 -1.5 -7 -1.5l10 -14h-5zM428 366c8.66699 0 14.5 2.33301 17.5 7s4.5 9 4.5 13
c0 16 -7.33301 24 -22 24c-15.333 0 -23 -8 -23 -24c0 -5.33301 1.83301 -10 5.5 -14s9.5 -6 17.5 -6zM428 413c8.66699 0 15 -2.66699 19 -8s6 -11.666 6 -18.999c0 -5.33301 -2 -10.5 -6 -15.5s-10.333 -7.5 -19 -7.5c-8 0 -14.333 2.5 -19 7.5s-7 10.167 -7 15.5
c0 7.33301 2.33301 13.666 7 18.999s11 8 19 8zM201 316c10.667 -0.666992 23.1689 -1.99805 37.502 -3.99805s28.666 -4.33301 42.999 -7s27.5 -5.83398 39.5 -9.50098s21 -7.83398 27 -12.501c-13.333 26.667 -34 47.167 -62 61.5s-56.667 21.5 -86 21.5
c-22.667 0 -44.334 -4.33301 -65.001 -13s-37.667 -22 -51 -40c12 1.33301 24 2.33301 36 3s24 1 36 1h22.5c7.66699 0 15.167 -0.333008 22.5 -1zM375.002 395.002l-0.000976562 -142c-32 10 -68.5 18.5 -109.5 25.5s-84.5 10.5 -130.5 10.5c-32 0 -63.333 -2 -94 -6
c4 14.667 10.333 28.834 19 42.501s19.667 25.667 33 36s28.833 18.5 46.5 24.5s37.167 9 58.5 9c20.667 0 39.334 -2.33301 56.001 -7s31.167 -10.334 43.5 -17.001s22.833 -14 31.5 -22s15 -15 19 -21c0 -0.666992 0 1.5 0 6.5s-0.166992 11.167 -0.5 18.5
s-0.5 15 -0.5 23v19h28zM153.001 127.002c0 5.33301 -1.83301 9.33301 -5.5 12s-7.5 4 -11.5 4c-4.66699 0 -8.66699 -1.33301 -12 -4s-5 -6.66699 -5 -12s1.66699 -9.16602 5 -11.499s7.33301 -3.5 12 -3.5c4 0 7.83301 1.16699 11.5 3.5s5.5 6.16602 5.5 11.499z
M32.001 139.002c0 15.333 3 29.001 9 41.001s14 22 24 30s21.333 14 34 18s25.667 6 39 6s26.166 -1.83301 38.499 -5.5s23.333 -9.16699 33 -16.5s17.334 -16.666 23.001 -27.999s8.5 -25 8.5 -41v-116h106v202h28v-228h-189v26h29v119c0 20 -7.33301 35 -22 45
s-32.667 15 -54 15c-20 0 -38 -5.5 -54 -16.5s-24 -26.5 -24 -46.5v-107l58 58c-3.33301 1.33301 -7.66602 4.66602 -12.999 9.99902s-8 13 -8 23c0 12 3.66699 21.5 11 28.5s17 10.5 29 10.5c11.333 0 20.5 -3.83301 27.5 -11.5s10.5 -16.834 10.5 -27.501
c0 -9.33301 -1.83301 -16.5 -5.5 -21.5s-6.83398 -8.83301 -9.50098 -11.5l-17 -16.5l-33 -31.5l-22.5 -21l-24.5 -24h-32v138z" />
    <glyph glyph-name="space" unicode=" " horiz-adv-x="250" 
 />
    <glyph glyph-name="exclam" unicode="!" horiz-adv-x="215" 
d="M160 310l-13 -175h-80l-12 175v218h105v-218zM170 50c0 -17.333 -6.16699 -31.666 -18.5 -42.999s-27.166 -17 -44.499 -17s-32.166 5.66699 -44.499 17s-18.5 25.666 -18.5 42.999s6.16699 31.833 18.5 43.5s27.166 17.5 44.499 17.5s32.166 -5.83301 44.499 -17.5
s18.5 -26.167 18.5 -43.5z" />
    <glyph glyph-name="quotedbl" unicode="&#x22;" horiz-adv-x="241" 
d="M211 342h-68l-8 195h85zM96 342h-65l-9 195h84z" />
    <glyph glyph-name="numbersign" unicode="#" horiz-adv-x="449" 
d="M344 291l-10 -65h72v-82h-85l-24 -144h-81l23 144h-55l-21 -144h-83l21 144h-74v82h86l9 65h-76v82h87l20 134h85l-21 -134h56l20 134h84l-20 -134h66v-82h-79zM205 291l-10 -65h57l8 65h-55z" />
    <glyph glyph-name="dollar" unicode="$" horiz-adv-x="428" 
d="M417 158c0 -20 -4.00293 -38.666 -12.0029 -55.999s-19 -33 -33 -47s-30.333 -26 -49 -36s-38.667 -17.333 -60 -22v-81h-72v76c-80 6 -140.667 54.667 -182 146l91 39c14.667 -32 29.334 -55.167 44.001 -69.5s30.334 -23.5 47.001 -27.5v164l-45.5 20
c-15 6.66699 -29.167 14.667 -42.5 24c-16.667 11.333 -30.167 24.833 -40.5 40.5s-15.5 35.167 -15.5 58.5c0 38.667 13 71.5 39 98.5s61 43.5 105 49.5v73h72v-75c25.333 -5.33301 49.333 -16 72 -32s44.334 -38 65.001 -66l-80 -56c-12 15.333 -22.5 27.5 -31.5 36.5
s-17.5 16.167 -25.5 21.5v-126l50 -22c14.667 -6.66699 22.667 -10.334 24 -11.001c25.333 -14 45 -30.5 59 -49.5s21 -42.5 21 -70.5zM190.997 445.001c-12 -4 -21.999 -10.499 -29.999 -19.499s-12 -21.167 -12 -36.5c0 -11.333 4.66699 -20.333 14 -27
s18.666 -12.334 27.999 -17.001v100zM313.998 158.002c0 12.667 -5.99902 23.332 -17.999 31.999s-23 15.667 -33 21v-124c15.333 6.66699 27.666 15.834 36.999 27.501s14 26.167 14 43.5z" />
    <glyph glyph-name="percent" unicode="%" horiz-adv-x="567" 
d="M259 411c0 -16.667 -3.16797 -32.167 -9.50098 -46.5s-15 -26.666 -26 -36.999s-24 -18.5 -39 -24.5s-30.833 -9 -47.5 -9c-17.333 0 -33.333 3 -48 9s-27.667 14.167 -39 24.5s-20.166 22.666 -26.499 36.999s-9.5 29.833 -9.5 46.5s3.16699 32.334 9.5 47.001
s15 27.334 26 38.001s24 19 39 25s31.167 9 48.5 9c16.667 0 32.5 -3 47.5 -9s28 -14.333 39 -25s19.667 -23.334 26 -38.001s9.5 -30.334 9.5 -47.001zM161.999 -25l-73 43l311 532l79 -36zM550.999 116c0 -17.333 -3.33203 -33 -9.99902 -47s-15.5 -26.333 -26.5 -37
s-24 -18.834 -39 -24.501s-30.833 -8.5 -47.5 -8.5s-32.334 2.83301 -47.001 8.5s-27.667 13.834 -39 24.501s-20.333 23 -27 37s-10 29.667 -10 47s3.33301 33.166 10 47.499s15.5 26.833 26.5 37.5s24 18.834 39 24.501s30.833 8.5 47.5 8.5s32.5 -2.83301 47.5 -8.5
s28 -13.834 39 -24.501s19.833 -23.167 26.5 -37.5s10 -30.166 10 -47.499zM180 411c0 11.333 -4.33301 21 -13 29s-18.667 12 -30 12c-12 0 -22.167 -4 -30.5 -12s-12.5 -17.667 -12.5 -29s4.16699 -20.833 12.5 -28.5s18.5 -11.5 30.5 -11.5c11.333 0 21.333 4 30 12
s13 17.333 13 28zM472 116c0 11.333 -4.33301 21.166 -13 29.499s-19 12.5 -31 12.5s-22.167 -4.16699 -30.5 -12.5s-12.5 -18.166 -12.5 -29.499s4.16699 -20.833 12.5 -28.5s18.5 -11.5 30.5 -11.5s22.333 3.83301 31 11.5s13 17.167 13 28.5z" />
    <glyph glyph-name="ampersand" unicode="&#x26;" horiz-adv-x="554" 
d="M446 0l-64.9951 72c-23.333 -20.667 -48.666 -39.5 -75.999 -56.5s-57 -26.833 -89 -29.5c-22 -2 -42.833 0.333008 -62.5 7s-37.167 16.5 -52.5 29.5s-27.833 28.5 -37.5 46.5s-15.5 37.667 -17.5 59c-2 22 0.166992 42 6.5 60s15 34.833 26 50.5s23.833 30 38.5 43
l43 36.5c-11.333 12.667 -21.333 26.5 -30 41.5s-13.667 31.833 -15 50.5c-1.33301 16.667 0.666992 32.667 6 48s13.166 29 23.499 41s22.666 21.833 36.999 29.5s30.166 12.167 47.499 13.5s33.666 -0.666992 48.999 -6s28.666 -13 39.999 -23
s20.666 -21.833 27.999 -35.5s11.666 -28.5 12.999 -44.5c1.33301 -14.667 0.333008 -28.167 -3 -40.5s-8 -23.833 -14 -34.5s-13.167 -20.5 -21.5 -29.5s-17.166 -17.5 -26.499 -25.5l86 -95l53 60l76 -55l-65 -75l121 -138h-119zM266.005 425
c-1.33301 9.33301 -5 16.499 -11 21.499s-12.667 7.16699 -20 6.5c-6 -0.666992 -12.167 -4.66699 -18.5 -12s-8.83301 -16.333 -7.5 -27c0.666992 -7.33301 3.66699 -14.833 9 -22.5s10.333 -14.167 15 -19.5c7.33301 6.66699 15 14.334 23 23.001s11.333 18.667 10 30z
M223.005 246.999l-27.001 -20.5c-10 -7.66699 -19.167 -16.167 -27.5 -25.5s-15.166 -19.166 -20.499 -29.499s-7.33301 -21.166 -6 -32.499c1.33301 -20 8.5 -35.833 21.5 -47.5s27.833 -16.834 44.5 -15.501c17.333 1.33301 35 8.16602 53 20.499s36.667 27.5 56 45.5z
" />
    <glyph glyph-name="quotesingle" unicode="'" horiz-adv-x="161" 
d="M112 342h-65l-9 195h85z" />
    <glyph glyph-name="parenleft" unicode="(" horiz-adv-x="237" 
d="M222 538c-72 -106.667 -108.001 -211.333 -108.001 -314c0 -28.667 1.83301 -55 5.5 -79s9.5 -48.167 17.5 -72.5s18.333 -50.333 31 -78s28.334 -59.5 47.001 -95.5l-92 -3c-34.667 54 -60.667 108.833 -78 164.5s-26 110.5 -26 164.5c0 54.667 9 108 27 160
s43.333 104.333 76 157z" />
    <glyph glyph-name="parenright" unicode=")" horiz-adv-x="237" 
d="M222 225c0 -54 -8.66797 -108.833 -26.001 -164.5s-43.333 -110.5 -78 -164.5l-92 3c18.667 36 34.334 67.833 47.001 95.5s23 53.667 31 78s13.833 48.5 17.5 72.5s5.5 50.333 5.5 79c0 52 -9 103.833 -27 155.5s-45 104.5 -81 158.5l99 4
c32.667 -52.667 58.167 -105 76.5 -157s27.5 -105.333 27.5 -160z" />
    <glyph glyph-name="asterisk" unicode="*" horiz-adv-x="352" 
d="M240 378l56 -76l-66 -51l-52 74l-7 -9l-48 -65l-66 51l56 76l-89 27l27 79l86 -30l-3 94h84l-2 -94l86 30l27 -79z" />
    <glyph glyph-name="plus" unicode="+" horiz-adv-x="395" 
d="M237 155v-140h-79v140h-140v79h140v140h79v-140h140v-79h-140z" />
    <glyph glyph-name="comma" unicode="," horiz-adv-x="170" 
d="M146 32c0 -19.333 -7.50098 -40 -22.501 -62s-38.5 -43.667 -70.5 -65l-38 40c14.667 9.33301 26 17.5 34 24.5s15.333 15.167 22 24.5c-14 3.33301 -25 9.5 -33 18.5s-12 19.833 -12 32.5c0 14.667 5.33301 27.667 16 39s24.334 17 41.001 17
c10.667 0 20 -2.16699 28 -6.5s14.5 -9.83301 19.5 -16.5s8.83301 -14 11.5 -22s4 -16 4 -24z" />
    <glyph glyph-name="hyphen" unicode="-" horiz-adv-x="287" 
d="M26 155v80h235v-80h-235z" />
    <glyph glyph-name="period" unicode="." horiz-adv-x="170" 
d="M144 51c0 -16.667 -5.66699 -30.667 -17 -42s-25.333 -17 -42 -17s-30.667 5.66699 -42 17s-17 25 -17 41c0 16.667 5.66699 30.667 17 42s25.333 17 42 17s30.667 -5.66699 42 -17s17 -25 17 -41z" />
    <glyph glyph-name="slash" unicode="/" horiz-adv-x="474" 
d="M125 0h-100l327 594h97z" />
    <glyph glyph-name="zero" unicode="0" horiz-adv-x="430" 
d="M409 267c0 -32.667 -3.99805 -65.334 -11.998 -98.001s-20 -62.167 -36 -88.5s-36.333 -47.666 -61 -63.999s-53.334 -24.5 -86.001 -24.5c-33.333 0 -62.166 8.16699 -86.499 24.5s-44.5 37.666 -60.5 63.999s-28 55.833 -36 88.5s-12 65.334 -12 98.001s4 65 12 97
s20.167 60.833 36.5 86.5s36.666 46.334 60.999 62.001s52.833 23.5 85.5 23.5s61.167 -7.83301 85.5 -23.5s44.666 -36.334 60.999 -62.001s28.5 -54.5 36.5 -86.5s12 -64.333 12 -97zM309.002 267c0 24.667 -2.66699 47.834 -8 69.501s-12.333 40.167 -21 55.5
s-18.834 27.5 -30.501 36.5s-23.5 13.5 -35.5 13.5s-23.833 -4.5 -35.5 -13.5s-22 -21.167 -31 -36.5s-16.167 -33.833 -21.5 -55.5s-8 -44.834 -8 -69.501c0 -28 2.66699 -53.167 8 -75.5s12.5 -41.5 21.5 -57.5s19.333 -28.167 31 -36.5s23.5 -12.5 35.5 -12.5
s23.833 4.16699 35.5 12.5s21.834 20.5 30.501 36.5s15.667 35.167 21 57.5s8 47.5 8 75.5z" />
    <glyph glyph-name="one" unicode="1" horiz-adv-x="430" 
d="M179 -1v435h-93v94h192v-529h-99z" />
    <glyph glyph-name="two" unicode="2" horiz-adv-x="430" 
d="M395 366c0 -18.667 -3.16602 -36.667 -9.49902 -54s-14.5 -33.5 -24.5 -48.5s-20.833 -29 -32.5 -42s-22.834 -24.5 -33.501 -34.5l-96 -95h194v-92h-353v69l178 176c20 20 38 41 54 63s24 42 24 60c0 21.333 -7.66699 39.166 -23 53.499s-34 21.5 -56 21.5
c-21.333 0 -39.666 -8.16699 -54.999 -24.5s-23 -44.833 -23 -85.5h-100c0.666992 34.667 6.16699 64.834 16.5 90.501s23.666 46.667 39.999 63s35.166 28.5 56.499 36.5s43 12 65 12c24.667 0 47.834 -4.33301 69.501 -13s40.5 -20.5 56.5 -35.5s28.667 -32.833 38 -53.5
s14 -43 14 -67z" />
    <glyph glyph-name="three" unicode="3" horiz-adv-x="430" 
d="M385 162c0 -23.333 -3.99805 -45.3271 -11.998 -65.9941s-19.333 -38.667 -34 -54s-32.834 -27.5 -54.501 -36.5s-45.834 -13.5 -72.501 -13.5c-22 0 -43.167 3.83301 -63.5 11.5s-38.333 19.167 -54 34.5s-28.167 34.666 -37.5 57.999s-14.333 51 -15 83h97
c1.33301 -34.667 8.5 -59 21.5 -73s29.833 -21 50.5 -21c21.333 0 39 7.16699 53 21.5s21 32.166 21 53.499c0 17.333 -6.83301 32.333 -20.5 45s-37.834 20.667 -72.501 24v88c32 3.33301 54.167 11.166 66.5 23.499s18.5 26.833 18.5 43.5c0 18 -5.66699 32.167 -17 42.5
s-25.666 15.5 -42.999 15.5c-16 0 -30 -6 -42 -18s-18 -35.667 -18 -71h-99c0 61.333 15 107.166 45 137.499s68.333 45.5 115 45.5c22 0 42.5 -3.83301 61.5 -11.5s35.833 -18.167 50.5 -31.5s26.167 -29.333 34.5 -48s12.5 -39.334 12.5 -62.001
c0 -42.667 -15.333 -78.334 -46 -107.001c36 -32 54 -70 54 -114z" />
    <glyph glyph-name="four" unicode="4" horiz-adv-x="430" 
d="M352 87v-87h-100v87h-239v73l261 368h78v-346h58v-95h-58zM252 334l-109 -152h109v152z" />
    <glyph glyph-name="five" unicode="5" horiz-adv-x="430" 
d="M408 189c0 -28.667 -5.49902 -55.001 -16.499 -79.001s-25.833 -44.833 -44.5 -62.5s-40.5 -31.334 -65.5 -41.001s-51.5 -14.5 -79.5 -14.5c-34.667 0 -68.334 9.5 -101.001 28.5s-62.334 51.5 -89.001 97.5l89 38c18.667 -28 36.5 -46.833 53.5 -56.5
s33.167 -14.5 48.5 -14.5c30 0 55.167 9.5 75.5 28.5s30.5 44.5 30.5 76.5c0 13.333 -2.83301 26 -8.5 38s-13.167 22.333 -22.5 31s-20.333 15.5 -33 20.5s-26 7.5 -40 7.5c-16 0 -35 -3.16699 -57 -9.5s-49 -18.166 -81 -35.499v286h296v-93h-196v-60
c16.667 3.33301 31.334 5 44.001 5c28 0 54 -5 78 -15s44.833 -23.667 62.5 -41s31.5 -37.666 41.5 -60.999s15 -48 15 -74z" />
    <glyph glyph-name="six" unicode="6" horiz-adv-x="430" 
d="M408 188c0 -26 -5.00293 -50.832 -15.0029 -74.499s-23.667 -44.5 -41 -62.5s-37.666 -32.333 -60.999 -43s-48.333 -16 -75 -16s-51.667 5.16699 -75 15.5s-43.666 24.333 -60.999 42s-31 38.334 -41 62.001s-15 49.167 -15 76.5c0 23.333 3.33301 44.666 10 63.999
s16 38 28 56l149 221h119l-99 -145c25.333 -2 48.833 -8.66699 70.5 -20s40.334 -25.833 56.001 -43.5s28 -37.834 37 -60.501s13.5 -46.667 13.5 -72zM308.997 188.001c0 14.667 -2.66699 28.167 -8 40.5s-12.166 23 -20.499 32s-18.166 16.167 -29.499 21.5s-23 8 -35 8
s-23.5 -2.5 -34.5 -7.5s-20.833 -12 -29.5 -21s-15.5 -19.833 -20.5 -32.5s-7.5 -26.334 -7.5 -41.001c0 -15.333 2.5 -29.166 7.5 -41.499s11.833 -23 20.5 -32s18.5 -16 29.5 -21s22.5 -7.5 34.5 -7.5s23.667 2.66699 35 8s21.166 12.5 29.499 21.5
s15.166 19.667 20.499 32s8 25.833 8 40.5z" />
    <glyph glyph-name="seven" unicode="7" horiz-adv-x="430" 
d="M145 0h-112l250 434h-251v94h370v-80z" />
    <glyph glyph-name="eight" unicode="8" horiz-adv-x="430" 
d="M388 153c0 -23.333 -4.66504 -44.833 -13.998 -64.5s-22 -36.667 -38 -51s-34.5 -25.5 -55.5 -33.5s-42.833 -12 -65.5 -12c-23.333 0 -45.333 4 -66 12s-39 19.167 -55 33.5s-28.667 31.333 -38 51s-14 41.167 -14 64.5c0 50.667 18 91.667 54 123
c-28.667 29.333 -43 63.666 -43 102.999c0 22 4.16699 42.667 12.5 62s19.666 36 33.999 50s31.333 25 51 33s41.167 12 64.5 12c22.667 0 44 -4 64 -12s37.167 -19 51.5 -33s25.666 -30.667 33.999 -50s12.5 -40 12.5 -62c0 -39.333 -14.333 -73.666 -43 -102.999
c36 -31.333 54 -72.333 54 -123zM278.002 380c0 17.333 -6.33105 31.998 -18.998 43.998s-27.334 18 -44.001 18c-17.333 0 -32.166 -6 -44.499 -18s-18.5 -26.667 -18.5 -44s6.16699 -31.666 18.5 -42.999s27.166 -17 44.499 -17s32.166 5.83301 44.499 17.5
s18.5 25.834 18.5 42.501zM289.004 155.998c0 19.333 -7.33301 35.6641 -22 48.9971s-32 20 -52 20s-37.333 -6.66699 -52 -20s-22 -29.666 -22 -48.999s7.33301 -36 22 -50s32 -21 52 -21c10 0 19.333 1.83301 28 5.5s16.5 8.83398 23.5 15.501s12.5 14.334 16.5 23.001
s6 17.667 6 27z" />
    <glyph glyph-name="nine" unicode="9" horiz-adv-x="430" 
d="M406 337c0 -23.333 -3.66602 -44.501 -10.999 -63.501s-16.666 -36.833 -27.999 -53.5l-147 -220h-118l99 145c-25.333 1.33301 -48.833 7.5 -70.5 18.5s-40.5 25.333 -56.5 43s-28.667 38 -38 61s-14 47.167 -14 72.5c0 27.333 5.16699 52.833 15.5 76.5
s24.166 44.334 41.499 62.001s37.833 31.5 61.5 41.5s48.5 15 74.5 15c26.667 0 51.667 -5.16699 75 -15.5s43.666 -24.333 60.999 -42s30.833 -38.5 40.5 -62.5s14.5 -50 14.5 -78zM306.001 339.999c0 14.667 -2.49512 28 -7.49512 40s-11.833 22.5 -20.5 31.5
s-18.334 16 -29.001 21s-22 7.5 -34 7.5c-24.667 0 -46.334 -9.16699 -65.001 -27.5s-28 -42.5 -28 -72.5c0 -14.667 2.66699 -28.167 8 -40.5s12.166 -23 20.499 -32s18.166 -16 29.499 -21s23 -7.5 35 -7.5c11.333 0 22.5 2.5 33.5 7.5s20.667 12 29 21
s15.166 19.667 20.499 32s8 25.833 8 40.5z" />
    <glyph glyph-name="colon" unicode=":" horiz-adv-x="170" 
d="M144 304c0 -16.667 -5.66699 -30.667 -17 -42s-25 -17 -41 -17c-16.667 0 -30.667 5.66699 -42 17s-17 25 -17 41c0 16.667 5.66699 30.667 17 42s25 17 41 17c16.667 0 30.667 -5.66699 42 -17s17 -25 17 -41zM144 52c0 -16.667 -5.66699 -30.667 -17 -42
s-25 -17 -41 -17c-16.667 0 -30.667 5.66699 -42 17s-17 25 -17 41c0 16.667 5.66699 30.667 17 42s25 17 41 17c16.667 0 30.667 -5.66699 42 -17s17 -25.333 17 -42v1z" />
    <glyph glyph-name="semicolon" unicode=";" horiz-adv-x="170" 
d="M143 303c0 -16.667 -5.66699 -30.667 -17 -42s-25.333 -17 -42 -17c-16 0 -29.667 5.66699 -41 17s-17 25.333 -17 42s5.66699 30.667 17 42s25 17 41 17c16.667 0 30.667 -5.66699 42 -17s17 -25.333 17 -42zM146 32c0 -19.333 -7.50098 -40 -22.501 -62
s-38.5 -43.667 -70.5 -65l-38 40c14.667 9.33301 26 17.5 34 24.5s15.333 15.167 22 24.5c-14 3.33301 -25 9.5 -33 18.5s-12 19.833 -12 32.5c0 14.667 5.33301 27.667 16 39s24.334 17 41.001 17c10.667 0 20 -2.16699 28 -6.5s14.5 -9.83301 19.5 -16.5
s8.83301 -14 11.5 -22s4 -16 4 -24z" />
    <glyph glyph-name="less" unicode="&#x3c;" horiz-adv-x="400" 
d="M24 169v70l353 176v-91l-236 -120l236 -128v-91z" />
    <glyph glyph-name="equal" unicode="=" horiz-adv-x="398" 
d="M23 215v80h353v-80h-353zM23 93v80h353v-80h-353z" />
    <glyph glyph-name="greater" unicode="&#x3e;" horiz-adv-x="400" 
d="M24 -15v91l236 128l-236 120v91l353 -176v-70z" />
    <glyph glyph-name="question" unicode="?" horiz-adv-x="360" 
d="M339 390c0 -28 -6.33301 -51.168 -19 -69.501s-26 -34.166 -40 -47.499c-4.66699 -4.66699 -10 -9.66699 -16 -15s-11.5 -11 -16.5 -17s-9.33301 -12.333 -13 -19s-5.5 -13.334 -5.5 -20.001v-69h-92v71c0 24.667 5.66699 45.167 17 61.5s23.666 31.166 36.999 44.499
l37 38.5c11.333 12.333 17 26.5 17 42.5c0 13.333 -5.16699 26.333 -15.5 39s-27.5 19 -51.5 19s-42.333 -8.66699 -55 -26s-15.334 -45 -8.00098 -83h-93c-6 30 -5.83301 57.333 0.5 82s16.833 45.834 31.5 63.501s32.834 31.167 54.501 40.5s44.834 14 69.501 14
c24 0 46 -4 66 -12s37 -18.667 51 -32s24.833 -29.166 32.5 -47.499s11.5 -37.833 11.5 -58.5zM244 44.999c0 -17.333 -5.83301 -31.833 -17.5 -43.5s-26.167 -17.5 -43.5 -17.5s-31.833 5.83301 -43.5 17.5s-17.5 26.167 -17.5 43.5s5.83301 31.833 17.5 43.5
s26.167 17.5 43.5 17.5c16.667 0 31 -5.83301 43 -17.5s18 -26.167 18 -43.5z" />
    <glyph glyph-name="at" unicode="@" horiz-adv-x="576" 
d="M582 115c-14.667 -24 -31.9971 -44.833 -51.9971 -62.5s-41.5 -32 -64.5 -43s-47.167 -19.167 -72.5 -24.5s-50.333 -8 -75 -8c-42 0 -81.667 6.83301 -119 20.5s-69.666 33 -96.999 58s-49 55.333 -65 91s-24 75.5 -24 119.5c0 38.667 7.5 74.834 22.5 108.501
s35.333 63 61 88s55.667 44.667 90 59s70.833 21.5 109.5 21.5c36 0 70 -5.83301 102 -17.5s60 -28 84 -49s42.833 -45.833 56.5 -74.5s20.5 -60.334 20.5 -95.001c0 -29.333 -5.33301 -56.833 -16 -82.5s-24.834 -48.334 -42.501 -68.001s-37.334 -35.167 -59.001 -46.5
s-43.5 -17 -65.5 -17c-19.333 0 -33.5 3.83301 -42.5 11.5s-15.167 15.5 -18.5 23.5c-14 -7.33301 -27.5 -12.666 -40.5 -15.999s-25.833 -5 -38.5 -5c-18 0 -33.833 3 -47.5 9s-25.167 14.333 -34.5 25s-16.333 22.834 -21 36.501s-7 28.5 -7 44.5
c0 22.667 3.83301 46.167 11.5 70.5s19.167 46.5 34.5 66.5s34.166 36.5 56.499 49.5s48.166 19.5 77.499 19.5c24.667 0 48.334 -8.33301 71.001 -25l3 12h68c-18.667 19.333 -41.334 34.5 -68.001 45.5s-54 16.5 -82 16.5c-30 0 -58.167 -5.83301 -84.5 -17.5
s-49.333 -27.5 -69 -47.5s-35.167 -43 -46.5 -69s-17 -53.333 -17 -82c0 -32.667 6.16699 -62.5 18.5 -89.5s29.333 -50.167 51 -69.5s46.834 -34.333 75.501 -45s59.667 -16 93 -16c32 0 64.167 5.66699 96.5 17s59.166 29.666 80.499 54.999zM349.003 317
c0.666992 2 0.332031 5.5 -1.00098 10.5s-4 9.83301 -8 14.5s-9.33301 8.83398 -16 12.501s-14.667 5.5 -24 5.5c-13.333 0 -26.166 -4.16699 -38.499 -12.5s-23.333 -19 -33 -32s-17.5 -27.5 -23.5 -43.5s-9 -31.333 -9 -46c0 -15.333 3.5 -27.833 10.5 -37.5
s20.5 -14.5 40.5 -14.5c8 0 15.833 1.83301 23.5 5.5s15 8.5 22 14.5s13.167 12.667 18.5 20s9.33301 14.666 12 21.999zM438.001 383c-5.33301 -14 -13.001 -36.167 -23.001 -66.5s-22.333 -74.166 -37 -131.499c-1.33301 -4.66699 -2.16602 -10.167 -2.49902 -16.5
s3.16699 -9.5 10.5 -9.5c10.667 0 22 4.5 34 13.5s23.333 20.833 34 35.5s19.5 30.834 26.5 48.501s10.5 35.167 10.5 52.5c0 19.333 -3.5 37.666 -10.5 54.999s-16.5 32.666 -28.5 45.999c-2 -1.33301 -6.66699 -10.333 -14 -27z" />
    <glyph glyph-name="A" unicode="A" horiz-adv-x="503" 
d="M397 0l-59 143h-172l-59 -143h-107l222 528h62l218 -528h-105zM252 348l-48 -115h96z" />
    <glyph glyph-name="B" unicode="B" horiz-adv-x="404" 
d="M390 161c0 -28 -5.33398 -52.167 -16.001 -72.5s-25 -37 -43 -50s-38.333 -22.667 -61 -29s-46 -9.5 -70 -9.5h-162v528h135c24.667 0 47.667 -3 69 -9s39.833 -15.167 55.5 -27.5s27.834 -28.333 36.501 -48s13 -43.167 13 -70.5c0 -34 -9 -62.333 -27 -85
c22 -14 39.167 -32 51.5 -54s18.5 -46.333 18.5 -73zM246.999 377c0 22 -6.66699 37.167 -20 45.5s-35.333 12.5 -66 12.5h-24v-117h24c28 0 49.333 3.5 64 10.5s22 23.167 22 48.5zM289.999 160c0 26.667 -10 44.334 -30 53.001c-10 5.33301 -22.5 8.66602 -37.5 9.99902
s-31.167 2 -48.5 2h-37v-133h44c36 0 63.167 5 81.5 15s27.5 27.667 27.5 53z" />
    <glyph glyph-name="C" unicode="C" horiz-adv-x="483" 
d="M471 59c-35.333 -26 -67.1699 -43.667 -95.5029 -53s-57.833 -14 -88.5 -14c-37.333 0 -72.833 7.16699 -106.5 21.5s-63.167 33.666 -88.5 57.999s-45.5 53 -60.5 86s-22.5 68.167 -22.5 105.5c0 38 7.33301 73.5 22 106.5s34.834 61.833 60.501 86.5
s55.334 44.167 89.001 58.5s69.5 21.5 107.5 21.5c28 0 56.667 -4.66699 86 -14s61.333 -27.333 96 -54l-52 -77c-15.333 11.333 -29.166 20.333 -41.499 27s-23.833 11.834 -34.5 15.501s-20.5 6 -29.5 7s-17.833 1.5 -26.5 1.5c-24 0 -46.833 -4.83301 -68.5 -14.5
s-40.667 -22.834 -57 -39.501s-29.333 -36 -39 -58s-14.5 -45.333 -14.5 -70c0 -22.667 4.83301 -44.5 14.5 -65.5s22.834 -39.667 39.501 -56s35.667 -29.333 57 -39s44 -14.5 68 -14.5c8.66699 0 17.5 0.666992 26.5 2s18.833 3.83301 29.5 7.5
s22.167 8.83398 34.5 15.501s26.166 15.667 41.499 27z" />
    <glyph glyph-name="D" unicode="D" horiz-adv-x="455" 
d="M446 263c0 -40.667 -7.33203 -77.167 -21.999 -109.5s-35 -59.833 -61 -82.5s-56.5 -40.167 -91.5 -52.5s-72.833 -18.5 -113.5 -18.5h-120v528h120c41.333 0 79.666 -6 114.999 -18s65.833 -29.5 91.5 -52.5s45.667 -50.833 60 -83.5s21.5 -69.667 21.5 -111z
M346.001 263c0 26 -4.49805 49.667 -13.498 71s-21.833 39.333 -38.5 54s-36.667 26 -60 34s-49 12 -77 12h-20v-341h20c28 0 53.667 4 77 12s43.166 19.333 59.499 34s29.166 32.5 38.499 53.5s14 44.5 14 70.5z" />
    <glyph glyph-name="E" unicode="E" horiz-adv-x="359" 
d="M38 0v528h298v-94h-199v-102h193v-93h-193v-146h199v-93h-298z" />
    <glyph glyph-name="F" unicode="F" horiz-adv-x="315" 
d="M137 435v-103h163v-93h-163v-239h-99v528h266v-93h-167z" />
    <glyph glyph-name="G" unicode="G" horiz-adv-x="577" 
d="M566 264c0 -37.333 -6.83398 -72.501 -20.501 -105.501s-32.5 -61.833 -56.5 -86.5s-52.667 -44.167 -86 -58.5s-69.666 -21.5 -108.999 -21.5c-38.667 0 -75 7.16699 -109 21.5s-63.833 33.833 -89.5 58.5s-45.834 53.5 -60.501 86.5s-22 68.167 -22 105.5
s7.33301 72.5 22 105.5s34.834 61.833 60.501 86.5s55.5 44.167 89.5 58.5s70.333 21.5 109 21.5c48.667 0 94.167 -12 136.5 -36s80.5 -60.333 114.5 -109l-78 -59c-26.667 38.667 -54.167 66.334 -82.5 83.001s-58.5 25 -90.5 25c-25.333 0 -49.166 -4.66699 -71.499 -14
s-41.666 -22 -57.999 -38s-29.333 -34.667 -39 -56s-14.5 -44 -14.5 -68s4.83301 -46.667 14.5 -68s22.667 -40 39 -56s35.666 -28.667 57.999 -38s46.166 -14 71.499 -14c40.667 0 76.167 11.833 106.5 35.5s50.833 54.5 61.5 92.5h-203v96h305
c1.33301 -18.667 2 -30.667 2 -36v-12z" />
    <glyph glyph-name="H" unicode="H" horiz-adv-x="496" 
d="M359 0v238h-221v-238h-99v528h99v-196h221v196h100v-528h-100z" />
    <glyph glyph-name="I" unicode="I" horiz-adv-x="186" 
d="M43 0v528h100v-528h-100z" />
    <glyph glyph-name="J" unicode="J" horiz-adv-x="186" 
d="M144 -21c0 -16 -3.16699 -31.333 -9.5 -46s-15.166 -27.334 -26.499 -38.001s-24.5 -19.167 -39.5 -25.5s-31.167 -9.5 -48.5 -9.5s-33.833 3.5 -49.5 10.5s-31.834 18.833 -48.501 35.5l68 68c7.33301 -7.33301 13.166 -12.166 17.499 -14.499s8.5 -3.5 12.5 -3.5
c6.66699 0 12.334 2.16699 17.001 6.5s7 9.83301 7 16.5v549h100v-549z" />
    <glyph glyph-name="K" unicode="K" horiz-adv-x="454" 
d="M329 0l-192 187v-187h-99v528h99v-169l177 169h139l-267 -255l282 -273h-139z" />
    <glyph glyph-name="L" unicode="L" horiz-adv-x="272" 
d="M38 0v528h99v-436h122v-92h-221z" />
    <glyph glyph-name="M" unicode="M" horiz-adv-x="639" 
d="M537 0l-54 264l-7 48l-16 -47l-110 -265h-60l-112 269l-15 45l-7 -46l-56 -268h-100l112 528h62l145 -349l146 349h62l111 -528h-101z" />
    <glyph glyph-name="N" unicode="N" horiz-adv-x="576" 
d="M538 0h-65l-336 355v-355h-99v528h65l336 -353v353h99v-528z" />
    <glyph glyph-name="O" unicode="O" horiz-adv-x="577" 
d="M566 264c0 -37.333 -7.33398 -72.5 -22.001 -105.5s-34.5 -61.833 -59.5 -86.5s-54.333 -44.167 -88 -58.5s-69.167 -21.5 -106.5 -21.5c-38 0 -73.667 7.16699 -107 21.5s-62.666 33.833 -87.999 58.5s-45.333 53.5 -60 86.5s-22 68.167 -22 105.5
c0 36.667 7.33301 71.5 22 104.5s34.5 62 59.5 87s54.333 44.667 88 59s69.5 21.5 107.5 21.5c37.333 0 72.833 -7.16699 106.5 -21.5s63 -33.833 88 -58.5s44.833 -53.5 59.5 -86.5s22 -68.167 22 -105.5zM467.999 264c0 24 -4.83301 46.832 -14.5 68.499
s-22.5 40.5 -38.5 56.5s-34.833 28.833 -56.5 38.5s-44.5 14.5 -68.5 14.5c-24.667 0 -47.834 -4.66699 -69.501 -14s-40.667 -22.166 -57 -38.499s-29.166 -35.333 -38.499 -57s-14 -44.5 -14 -68.5s4.83301 -46.833 14.5 -68.5s22.667 -40.667 39 -57
s35.333 -29.333 57 -39s44.5 -14.5 68.5 -14.5s46.833 4.83301 68.5 14.5s40.5 22.667 56.5 39s28.833 35.333 38.5 57s14.5 44.5 14.5 68.5z" />
    <glyph glyph-name="P" unicode="P" horiz-adv-x="345" 
d="M337 373c0 -27.333 -4.83203 -50.666 -14.499 -69.999s-22.834 -35.333 -39.501 -48s-36 -21.834 -58 -27.501s-45 -8.5 -69 -8.5h-19v-219h-99v528h118c24.667 0 48 -3 70 -9s41.333 -15.167 58 -27.5s29.667 -28.333 39 -48s14 -43.167 14 -70.5zM238.001 374
c0 23.333 -7.66895 39.333 -23.002 48s-35.666 13 -60.999 13h-17v-122h20c24.667 0 44.334 4.83301 59.001 14.5s22 25.167 22 46.5z" />
    <glyph glyph-name="Q" unicode="Q" horiz-adv-x="577" 
d="M465 -1l-29.998 37.002c-23.333 -14 -47.5 -24.833 -72.5 -32.5s-50.167 -11.5 -75.5 -11.5c-38 0 -73.833 7.16699 -107.5 21.5s-63 33.666 -88 57.999s-44.667 53 -59 86s-21.5 68.5 -21.5 106.5c0 37.333 7.33301 72.5 22 105.5s34.5 61.833 59.5 86.5
s54.333 44.167 88 58.5s69.5 21.5 107.5 21.5c37.333 0 72.666 -7 105.999 -21s62.666 -33.333 87.999 -58s45.333 -53.334 60 -86.001s22 -67.667 22 -105c0 -61.333 -19 -117 -57 -167l91 -100h-133zM466.002 260.002c0 24.667 -4.66699 48.1689 -14 70.502
s-22 41.666 -38 57.999s-34.833 29.333 -56.5 39s-44.834 14.5 -69.501 14.5c-24 0 -46.833 -4.83301 -68.5 -14.5s-40.667 -22.5 -57 -38.5s-29.333 -34.833 -39 -56.5s-14.5 -44.5 -14.5 -68.5c0 -24.667 4.83301 -47.834 14.5 -69.501s22.667 -40.667 39 -57
s35.333 -29.166 57 -38.499s44.834 -14 69.501 -14s50.667 7.66699 78 23l-88 90l74 63l85 -89c18.667 27.333 28 56.666 28 87.999z" />
    <glyph glyph-name="R" unicode="R" horiz-adv-x="390" 
d="M275 0l-140 201.001v-201h-97v528h116c26 0 50.333 -2.5 73 -7.5s42.5 -13.5 59.5 -25.5s30.5 -27.833 40.5 -47.5s15 -44.5 15 -74.5c0 -38.667 -10 -70.334 -30 -95.001s-46.333 -41.667 -79 -51l159 -227h-117zM244 374.001c0 13.333 -2.33301 24.001 -7 32.001
s-11 14.167 -19 18.5s-17 7.16602 -27 8.49902s-20.333 2 -31 2h-24v-123h28c20 0 38.333 4.33301 55 13s25 25 25 49z" />
    <glyph glyph-name="S" unicode="S" horiz-adv-x="380" 
d="M371 160c0 -24.667 -5.1709 -47.1631 -15.5039 -67.4961s-23.833 -38 -40.5 -53s-36 -26.667 -58 -35s-44.333 -12.5 -67 -12.5c-82 0 -142 50.333 -180 151l87 40c16 -38.667 31.5 -64.667 46.5 -78s31.167 -20 48.5 -20c10.667 0 20.834 2.16699 30.501 6.5
s18.167 10 25.5 17s13.166 15.167 17.499 24.5s6.5 19.333 6.5 30c0 8 -2.66699 15.333 -8 22s-12 12.5 -20 17.5s-16.333 9.66699 -25 14s-16 8.16602 -22 11.499l-52.5 26c-17.667 8.66699 -33.834 18.667 -48.501 30s-26.667 25 -36 41s-14 35.667 -14 59
c0 22 3.83301 42.167 11.5 60.5s18.334 34.333 32.001 48s29.834 24.334 48.501 32.001s39.334 11.5 62.001 11.5c30 0 58.333 -8.33301 85 -25s51.334 -43.334 74.001 -80.001l-74 -60c-10 14.667 -19 26.667 -27 36s-15.333 16.666 -22 21.999s-13 8.83301 -19 10.5
s-12.333 2.5 -19 2.5c-15.333 0 -28.166 -5.33301 -38.499 -16s-15.5 -24.334 -15.5 -41.001c0 -7.33301 2.33301 -13.833 7 -19.5s10.5 -10.834 17.5 -15.501s14.333 -8.66699 22 -12s14.167 -6.33301 19.5 -9l90 -47c22 -14 39.333 -30.833 52 -50.5s19 -43.5 19 -71.5z
" />
    <glyph glyph-name="T" unicode="T" horiz-adv-x="349" 
d="M224 435v-435h-99v435h-124v93h347v-93h-124z" />
    <glyph glyph-name="U" unicode="U" horiz-adv-x="470" 
d="M432 206l-0.00488281 -18.002c0 -6 -0.333008 -11.667 -1 -17c-1.33301 -27.333 -7.16602 -52.166 -17.499 -74.499s-24.166 -41.166 -41.499 -56.499s-37.666 -27.166 -60.999 -35.499s-48.666 -12.5 -75.999 -12.5c-22 0 -43.667 3.16699 -65 9.5
s-40.833 15.666 -58.5 27.999s-32.667 27.333 -45 45s-20.5 37.5 -24.5 59.5c-2 11.333 -3.16699 23 -3.5 35s-0.5 24.333 -0.5 37v322h100v-313c0 -22.667 0.833008 -41.834 2.5 -57.501s6.83398 -28.5 15.501 -38.5s20.5 -18.167 35.5 -24.5s29.5 -9.5 43.5 -9.5
c22 0 39.5 3.5 52.5 10.5s22.667 16.333 29 28s10.5 25.334 12.5 41.001s3 32.5 3 50.5v313h100v-322z" />
    <glyph glyph-name="V" unicode="V" horiz-adv-x="443" 
d="M252 0h-62l-189 528h104l100 -280l17 -57l16 56l101 281h104z" />
    <glyph glyph-name="W" unicode="W" horiz-adv-x="779" 
d="M602 0h-60l-153 356l-151 -356h-61l-176 528h103l93 -277l19 -67l24 64l122 280h59l121 -278l24 -65l17 63l92 280h104z" />
    <glyph glyph-name="X" unicode="X" horiz-adv-x="413" 
d="M301 0l-95 171l-94 -171h-113l150 268l-144 260h111l90 -159l87 159h112l-143 -259l150 -269h-111z" />
    <glyph glyph-name="Y" unicode="Y" horiz-adv-x="469" 
d="M285 221v-221h-101v221l-183 307h113l121 -201l120 201h114z" />
    <glyph glyph-name="Z" unicode="Z" horiz-adv-x="420" 
d="M148 92h249v-92h-378v72l248 363h-240v93h370v-70z" />
    <glyph glyph-name="bracketleft" unicode="[" horiz-adv-x="220" 
d="M29 -118v682h168v-90h-78v-502h78v-90h-168z" />
    <glyph glyph-name="backslash" unicode="\" horiz-adv-x="474" 
d="M349 0l-324 594h97l327 -594h-100z" />
    <glyph glyph-name="bracketright" unicode="]" horiz-adv-x="220" 
d="M29 -118v90h78v502h-78v90h168v-682h-168z" />
    <glyph glyph-name="asciicircum" unicode="^" horiz-adv-x="426" 
d="M334 192l-122 242l-120 -242h-87l175 355h65l175 -355h-86z" />
    <glyph glyph-name="underscore" unicode="_" horiz-adv-x="399" 
d="M2 -104v81h395v-81h-395z" />
    <glyph glyph-name="grave" unicode="`" horiz-adv-x="217" 
d="M135 360l-120 143l94 31l94 -142z" />
    <glyph glyph-name="a" unicode="a" horiz-adv-x="446" 
d="M314 0l0.000976562 29.999c-12 -9.33301 -26.833 -17.666 -44.5 -24.999s-35.5 -11 -53.5 -11c-30.667 0 -58.167 5.16699 -82.5 15.5s-45 24.166 -62 41.499s-30 37.5 -39 60.5s-13.5 47.5 -13.5 73.5s4.5 50.333 13.5 73s22 42.334 39 59.001s37.5 29.834 61.5 39.501
s51 14.5 81 14.5c17.333 0 34.666 -2.83301 51.999 -8.5s33.333 -13.834 48 -24.501v29h94v-367h-94zM316.001 188.999c0 28 -9.16797 51.3311 -27.501 69.998s-43.5 28 -75.5 28c-14 0 -27.167 -2.83301 -39.5 -8.5s-23 -13.167 -32 -22.5s-16 -20.166 -21 -32.499
s-7.5 -25.166 -7.5 -38.499c0 -30 9.33301 -55 28 -75s43.334 -30 74.001 -30c32 0 56.833 10.167 74.5 30.5s26.5 46.5 26.5 78.5z" />
    <glyph glyph-name="b" unicode="b" horiz-adv-x="448" 
d="M429 187c0 -28.667 -5.33398 -54.832 -16.001 -78.499s-24.834 -44 -42.501 -61s-38.167 -30.167 -61.5 -39.5s-47.333 -14 -72 -14c-17.333 0 -34.666 3 -51.999 9s-34.666 15.667 -51.999 29v-32h-95v596h95v-247c15.333 9.33301 31.5 16.166 48.5 20.499
s34.167 6.5 51.5 6.5c30 0 57 -5 81 -15s44.5 -23.5 61.5 -40.5s30.167 -37 39.5 -60s14 -47.5 14 -73.5zM333.999 187.002c0 14 -2.5 27.1689 -7.5 39.502s-12 23.166 -21 32.499s-19.5 16.666 -31.5 21.999s-25.333 8 -40 8c-34 0 -59.667 -9.5 -77 -28.5
s-26 -43.833 -26 -74.5c0 -30 9 -55 27 -75s43 -30 75 -30c30.667 0 55.167 10.167 73.5 30.5s27.5 45.5 27.5 75.5z" />
    <glyph glyph-name="c" unicode="c" horiz-adv-x="381" 
d="M369 42c-30 -19.333 -56.332 -32.332 -78.999 -38.999s-45 -10 -67 -10c-29.333 0 -56.5 5 -81.5 15s-46.5 23.5 -64.5 40.5s-32.167 37.167 -42.5 60.5s-15.5 48.333 -15.5 75s5.16699 51.5 15.5 74.5s24.666 43 42.999 60s40 30.5 65 40.5s52.167 15 81.5 15
c22 0 44.167 -3.33301 66.5 -10s48.5 -19.667 78.5 -39l-40 -81c-27.333 18 -48.5 29.667 -63.5 35s-29.5 8 -43.5 8c-15.333 0 -29.5 -2.83301 -42.5 -8.5s-24.333 -13.167 -34 -22.5s-17.334 -20.166 -23.001 -32.499s-8.5 -25.5 -8.5 -39.5s2.83301 -27.333 8.5 -40
s13.334 -23.834 23.001 -33.501s21 -17.334 34 -23.001s27.167 -8.5 42.5 -8.5c14 0 28.5 2.66699 43.5 8s36.167 17 63.5 35z" />
    <glyph glyph-name="d" unicode="d" horiz-adv-x="448" 
d="M315 -1v32.001c-14.667 -11.333 -30.167 -20.333 -46.5 -27s-33.833 -10 -52.5 -10c-30.667 0 -58.167 5.16699 -82.5 15.5s-45 24.166 -62 41.499s-30 37.666 -39 60.999s-13.5 48 -13.5 74s4.5 50.5 13.5 73.5s22 43 39 60s37.667 30.5 62 40.5s51.5 15 81.5 15
c17.333 0 34.5 -2.66699 51.5 -8s33.167 -13.666 48.5 -24.999v254h95v-597h-95zM317 190.001c0 28 -9.33398 51.499 -28.001 70.499s-44 28.5 -76 28.5c-14 0 -27.167 -2.83301 -39.5 -8.5s-23 -13.167 -32 -22.5s-16 -20.166 -21 -32.499s-7.5 -25.5 -7.5 -39.5
c0 -30 9.33301 -55.167 28 -75.5s43.334 -30.5 74.001 -30.5c32 0 57 10.333 75 31s27 47 27 79z" />
    <glyph glyph-name="e" unicode="e" horiz-adv-x="420" 
d="M114 157c5.33301 -23.333 17.332 -42.335 35.999 -57.002s40.334 -22 65.001 -22c21.333 0 40.333 5.83301 57 17.5s29.667 26.5 39 44.5l73 -50c-24.667 -34.667 -50.667 -59.667 -78 -75s-58.333 -23 -93 -23c-30 0 -57 5.33301 -81 16s-44.333 24.834 -61 42.501
s-29.5 38 -38.5 61s-13.5 47.167 -13.5 72.5c0 24.667 4.5 48.5 13.5 71.5s22 43.333 39 61s37.5 31.667 61.5 42s50.667 15.5 80 15.5c30.667 0 57.667 -5.33301 81 -16s43 -25.667 59 -45s28.167 -42.166 36.5 -68.499s12.5 -55.5 12.5 -87.5h-288zM294.999 237.998
c-14.667 32.667 -41.666 49 -80.999 49c-19.333 0 -36.833 -4.5 -52.5 -13.5s-27.834 -20.833 -36.501 -35.5h170z" />
    <glyph glyph-name="f" unicode="f" horiz-adv-x="227" 
d="M204 511l-23.499 4.5c-5 1 -9.16699 1.5 -12.5 1.5c-12.667 0 -20.167 -3.5 -22.5 -10.5s-3.83301 -15.167 -4.5 -24.5v-24v-92h84v-86h-84v-280h-95v280h-37v86h37v94c0 12 0.833008 26.667 2.5 44s6.83398 32.666 15.501 45.999c11.333 18 26.166 31.167 44.499 39.5
s37.166 12.5 56.499 12.5c6.66699 0 14.667 -0.666992 24 -2s22.333 -5.66602 39 -12.999z" />
    <glyph glyph-name="g" unicode="g" horiz-adv-x="448" 
d="M410 25c0 -11.333 -0.332031 -23.832 -0.999023 -37.499s-2.16699 -27.5 -4.5 -41.5s-6.16602 -27.833 -11.499 -41.5s-13 -26.834 -23 -39.501c-19.333 -24 -42.666 -41.833 -69.999 -53.5s-57 -17.5 -89 -17.5c-25.333 0 -49.333 3.5 -72 10.5s-43 18.333 -61 34
s-32.833 35.5 -44.5 59.5s-18.834 53 -21.501 87h94c3.33301 -38 14.5 -65 33.5 -81s41.833 -24 68.5 -24c39.333 0 66.666 10.167 81.999 30.5s23.666 50.166 24.999 89.499c0 2.66699 -0.166992 6.16699 -0.5 10.5s-0.5 7.83301 -0.5 10.5
c-16 -11.333 -32.333 -19.333 -49 -24s-34 -7 -52 -7c-29.333 0 -55.833 5.33301 -79.5 16s-44 24.834 -61 42.501s-30.167 38 -39.5 61s-14 46.833 -14 71.5c0 26 4.83301 50.5 14.5 73.5s23.334 43 41.001 60s38.667 30.333 63 40s51.166 14.5 80.499 14.5
c18 0 35.5 -2.83301 52.5 -8.5s31.833 -14.167 44.5 -25.5v31h95v-341zM317.001 186.001c0 28.667 -9.33203 52.332 -27.999 70.999s-44 28 -76 28c-14 0 -27.167 -2.83301 -39.5 -8.5s-22.833 -13.167 -31.5 -22.5s-15.5 -20.166 -20.5 -32.499s-7.5 -25.166 -7.5 -38.499
c0 -14.667 2.5 -28.5 7.5 -41.5s12 -24.333 21 -34s19.667 -17.334 32 -23.001s26.166 -8.5 41.499 -8.5c32 0 56.833 10.333 74.5 31s26.5 47 26.5 79z" />
    <glyph glyph-name="h" unicode="h" horiz-adv-x="395" 
d="M358 0l-94.9971 -0.00195312v216c0 26.667 -3.33301 45.334 -10 56.001s-22.334 16 -47.001 16c-29.333 0 -48.833 -9.66699 -58.5 -29s-14.5 -45.333 -14.5 -78v-181h-95v597h95v-246c21.333 15.333 46.666 23 75.999 23c28.667 0 52.667 -4.16699 72 -12.5
s34.666 -19.666 45.999 -33.999s19.333 -31 24 -50s7 -39.5 7 -61.5v-216z" />
    <glyph glyph-name="i" unicode="i" horiz-adv-x="181" 
d="M152 491c0 -16 -6 -29.667 -18 -41s-26.333 -17 -43 -17c-17.333 0 -31.833 5.66699 -43.5 17s-17.5 25 -17.5 41s5.83301 29.667 17.5 41s26.167 17 43.5 17s31.833 -5.66699 43.5 -17s17.5 -25 17.5 -41zM43 0v367h95v-367h-95z" />
    <glyph glyph-name="j" unicode="j" horiz-adv-x="182" 
d="M152 491c0 -16.667 -6 -30.5 -18 -41.5s-26.333 -16.5 -43 -16.5c-17.333 0 -31.833 5.5 -43.5 16.5s-17.5 24.833 -17.5 41.5c0 15.333 5.83301 28.833 17.5 40.5s26.167 17.5 43.5 17.5s31.833 -5.83301 43.5 -17.5s17.5 -25.167 17.5 -40.5zM43 -214v580h95v-580h-95z
" />
    <glyph glyph-name="k" unicode="k" horiz-adv-x="382" 
d="M268 0l-135 135v-135h-95v597h95v-317l86 86h130l-160 -160l209 -206h-130z" />
    <glyph glyph-name="l" unicode="l" horiz-adv-x="182" 
d="M43 0v598h96v-598h-96z" />
    <glyph glyph-name="m" unicode="m" horiz-adv-x="565" 
d="M527 0l-96.001 0.00195312v221c0 25.333 -2.66699 42.666 -8 51.999s-17 14 -35 14c-21.333 0 -36.333 -7.5 -45 -22.5s-13 -36.5 -13 -64.5v-200h-95v213c0 26.667 -3.16699 45.667 -9.5 57s-18.5 17 -36.5 17c-8 0 -15.5 -2.66699 -22.5 -8s-13 -12.333 -18 -21
s-9 -18.834 -12 -30.501s-4.5 -23.834 -4.5 -36.501v-191h-94v366h95v-30c12.667 13.333 25 22.333 37 27s25 7 39 7s27.833 -2.83301 41.5 -8.5s26.5 -14.5 38.5 -26.5c14 12.667 29.333 21.834 46 27.501s34.334 8.5 53.001 8.5c30 0 54 -4.5 72 -13.5
s32 -20.833 42 -35.5s16.667 -31.167 20 -49.5s5 -36.833 5 -55.5v-217z" />
    <glyph glyph-name="n" unicode="n" horiz-adv-x="388" 
d="M256 0v214.001c0 30 -3.66699 49.5 -11 58.5s-21.333 13.5 -42 13.5c-10.667 0 -20.334 -3.16699 -29.001 -9.5s-16.167 -14.5 -22.5 -24.5s-11.166 -21.333 -14.499 -34s-5 -25.334 -5 -38.001v-180h-94v366h94v-30c12 12 24.333 20.833 37 26.5s25 8.5 37 8.5
c28.667 0 52.5 -4 71.5 -12s33.833 -19 44.5 -33s18.167 -30.667 22.5 -50s6.5 -40 6.5 -62v-214h-95z" />
    <glyph glyph-name="o" unicode="o" horiz-adv-x="442" 
d="M424 185c0 -27.333 -5.33301 -52.666 -16 -75.999s-25.167 -43.666 -43.5 -60.999s-39.833 -30.833 -64.5 -40.5s-51.334 -14.5 -80.001 -14.5c-28 0 -54.333 5 -79 15s-46 23.667 -64 41s-32.167 37.666 -42.5 60.999s-15.5 48 -15.5 74s5.33301 50.667 16 74
s25 43.666 43 60.999s39.167 31 63.5 41s50.5 15 78.5 15c28.667 0 55.334 -4.83301 80.001 -14.5s46.167 -23 64.5 -40s32.833 -37.167 43.5 -60.5s16 -48.333 16 -75zM329 184c0 14.667 -2.83398 28.3311 -8.50098 40.998s-13.334 23.5 -23.001 32.5
s-21.334 16.167 -35.001 21.5s-28.5 8 -44.5 8c-14 0 -27.333 -2.66699 -40 -8s-23.667 -12.666 -33 -21.999s-16.666 -20.333 -21.999 -33s-8 -26 -8 -40s2.66699 -27.167 8 -39.5s12.833 -23.333 22.5 -33s20.667 -17.167 33 -22.5s25.5 -8 39.5 -8
c16 0 30.833 2.66699 44.5 8s25.334 12.5 35.001 21.5s17.334 19.833 23.001 32.5s8.5 26.334 8.5 41.001z" />
    <glyph glyph-name="p" unicode="p" horiz-adv-x="439" 
d="M421 180c0 -26 -4.50293 -50.502 -13.5029 -73.502s-21.667 -43 -38 -60s-36.333 -30.5 -60 -40.5s-50.5 -15 -80.5 -15c-32.667 0 -64.667 8.66699 -96 26v-231h-95v581h95v-29c16.667 12.667 32.834 21.334 48.501 26.001s31.834 7.33398 48.501 8.00098
c24.667 0.666992 48.5 -3.5 71.5 -12.5s43.333 -22 61 -39s31.834 -37.5 42.501 -61.5s16 -50.333 16 -79zM324.997 178.998c0 30 -9 55.5 -27 76.5s-41 31.5 -69 31.5c-30 0 -53.667 -10.5 -71 -31.5s-26 -47.5 -26 -79.5c0 -30 8.83301 -53.667 26.5 -71
s41.5 -26 71.5 -26c28 0 50.833 9.66699 68.5 29s26.5 43 26.5 71z" />
    <glyph glyph-name="q" unicode="q" horiz-adv-x="440" 
d="M307 -214l-0.000976562 234.999c-13.333 -8.66699 -28.5 -15.667 -45.5 -21s-33.5 -8 -49.5 -8c-29.333 0 -56 4.83301 -80 14.5s-44.333 23 -61 40s-29.5 37 -38.5 60s-13.5 47.5 -13.5 73.5c0 28.667 5.33301 54.834 16 78.501s24.834 44 42.501 61
s37.667 30.167 60 39.5s45.5 14 69.5 14c17.333 0 35 -2.83301 53 -8.5s33.667 -14.5 47 -26.5v28h95v-580h-95zM308.999 179.999c0 30 -9.16699 55.5 -27.5 76.5s-41.5 31.5 -69.5 31.5c-30 0 -53.667 -10.5 -71 -31.5s-26 -47.5 -26 -79.5c0 -28.667 9 -52 27 -70
s42 -27 72 -27c28 0 50.833 9.66699 68.5 29s26.5 43 26.5 71z" />
    <glyph glyph-name="r" unicode="r" horiz-adv-x="255" 
d="M216 268c-7.33301 5.33301 -13.999 8.50098 -19.999 9.50098s-9.66699 1.5 -11 1.5c-12 0 -21.5 -3.83301 -28.5 -11.5s-12.333 -17 -16 -28s-5.83398 -22.833 -6.50098 -35.5s-1 -24 -1 -34v-170h-95v366h95v-29c9.33301 12 19.833 20.5 31.5 25.5s22.167 7.5 31.5 7.5
c14 0 26.333 -1.83301 37 -5.5s21 -7.83398 31 -12.501z" />
    <glyph glyph-name="s" unicode="s" horiz-adv-x="305" 
d="M290 119c0 -18.667 -3.66895 -35.835 -11.002 -51.502s-17.333 -29.167 -30 -40.5s-27.167 -20.166 -43.5 -26.499s-33.833 -9.5 -52.5 -9.5c-32 0 -60.667 9.5 -86 28.5s-44.666 48.5 -57.999 88.5l86 32c7.33301 -24 15.833 -40.5 25.5 -49.5s20.5 -13.5 32.5 -13.5
s22.167 4.16699 30.5 12.5s12.5 18.5 12.5 30.5c0 11.333 -4.16699 18.833 -12.5 22.5s-19.166 7.5 -32.499 11.5c-12 4 -25 9.16699 -39 15.5s-26.833 14 -38.5 23s-21.5 19.667 -29.5 32s-12 26.5 -12 42.5c0 16.667 3.33301 31.667 10 45s15.5 24.5 26.5 33.5
s23.833 16 38.5 21s29.667 7.5 45 7.5c20.667 0 40.5 -5 59.5 -15s37.5 -29 55.5 -57l-79 -44c-9.33301 16 -17 25.167 -23 27.5s-10.667 3.5 -14 3.5c-8 0 -14 -2.16699 -18 -6.5s-6 -8.83301 -6 -13.5c0 -6 4 -11.167 12 -15.5s18 -8.66602 30 -12.999l39.5 -15
c14.333 -5.66699 27.5 -13 39.5 -22s22 -20.333 30 -34s12 -30.5 12 -50.5z" />
    <glyph glyph-name="t" unicode="t" horiz-adv-x="249" 
d="M165 280v-280h-96v280h-51v86h51v131h96v-131h73v-86h-73z" />
    <glyph glyph-name="u" unicode="u" horiz-adv-x="389" 
d="M351 151c0 -22.667 -2.50098 -43.667 -7.50098 -63s-13.5 -36.166 -25.5 -50.499s-28.167 -25.5 -48.5 -33.5s-45.5 -12 -75.5 -12s-55 4 -75 12s-36 19.167 -48 33.5s-20.5 31.166 -25.5 50.499s-7.5 40.666 -7.5 63.999v214h95v-214c0 -14 0.666992 -25.833 2 -35.5
s4.33301 -17.167 9 -22.5s10.834 -9.16602 18.501 -11.499s18.167 -3.5 31.5 -3.5c26 0 42.833 5 50.5 15s11.5 29.333 11.5 58v214h95v-215z" />
    <glyph glyph-name="v" unicode="v" horiz-adv-x="400" 
d="M231 0h-60l-169 366h102l86 -184l12 -32l11 33l82 183h103z" />
    <glyph glyph-name="w" unicode="w" horiz-adv-x="622" 
d="M458 0h-60l-87 199l-84 -199h-60l-166 366h103l79 -177l14 -36l12 35l75 178h57l74 -173l14 -41l15 40l76 174h100z" />
    <glyph glyph-name="x" unicode="x" horiz-adv-x="424" 
d="M308 0l-98 121l-98 -121h-116l154 192l-145 174h117l87 -107l87 107h120l-145 -176l155 -190h-118z" />
    <glyph glyph-name="y" unicode="y" horiz-adv-x="443" 
d="M184 -214h-102l98 220l-178 360h103l125 -250l111 250h101z" />
    <glyph glyph-name="z" unicode="z" horiz-adv-x="384" 
d="M25 0v70l194 211h-184v85h324v-68l-195 -213h195v-85h-334z" />
    <glyph glyph-name="braceleft" unicode="{" horiz-adv-x="228" 
d="M218 -120c-31.333 2 -56.833 6.16699 -76.5 12.5s-35.167 15.333 -46.5 27s-19 25.834 -23 42.501s-6 36 -6 58v109c0 12 -3.16699 22.333 -9.5 31s-18.833 20.334 -37.5 35.001v58c19.333 14.667 32 26 38 34s9 17.667 9 29v111c0 22 2 41.5 6 58.5s11.667 31.333 23 43
s26.833 20.667 46.5 27s45.167 10.166 76.5 11.499v-89c-15.333 -0.666992 -27.166 -1.5 -35.499 -2.5s-14.5 -2.33301 -18.5 -4s-6.5 -4 -7.5 -7s-1.5 -6.83301 -1.5 -11.5v-119c0 -28 -2.83301 -50.5 -8.5 -67.5s-14.167 -31.5 -25.5 -43.5
c11.333 -12.667 19.833 -27.834 25.5 -45.501s8.5 -40.5 8.5 -68.5v-114c0 -5.33301 0.5 -9.5 1.5 -12.5s3.5 -5.5 7.5 -7.5s10.167 -3.33301 18.5 -4s20.166 -1 35.499 -1v-90z" />
    <glyph glyph-name="bar" unicode="|" horiz-adv-x="218" 
d="M66 -7v596h87v-596h-87z" />
    <glyph glyph-name="braceright" unicode="}" horiz-adv-x="228" 
d="M208 195c-9.33301 -7.33301 -17.1689 -13.833 -23.502 -19.5s-11.166 -10.834 -14.499 -15.501s-5.66602 -9.5 -6.99902 -14.5s-2 -10.5 -2 -16.5v-109c0 -22 -2 -41.333 -6 -58s-11.667 -30.834 -23 -42.501s-26.833 -20.667 -46.5 -27s-45.167 -10.5 -76.5 -12.5v90
c14.667 0 26.334 0.333008 35.001 1s15 2 19 4s6.5 4.5 7.5 7.5s1.5 7.16699 1.5 12.5v114c0 28 2.83301 50.833 8.5 68.5s14.167 32.834 25.5 45.501c-11.333 12 -19.833 26.5 -25.5 43.5s-8.5 39.5 -8.5 67.5v119c0 4.66699 -0.5 8.5 -1.5 11.5s-3.5 5.33301 -7.5 7
s-10.333 3 -19 4s-20.334 1.83301 -35.001 2.5v89c31.333 -1.33301 56.833 -5.16602 76.5 -11.499s35.167 -15.333 46.5 -27s19 -26 23 -43s6 -36.5 6 -58.5v-111c0 -11.333 3 -21 9 -29s18.667 -19.333 38 -34v-58z" />
    <glyph glyph-name="asciitilde" unicode="~" horiz-adv-x="458" 
d="M442 226c-17.333 -31.333 -36.8301 -58.0049 -58.4971 -80.0049s-47.5 -33 -77.5 -33c-14 0 -27.5 2.83301 -40.5 8.5s-25.5 11.834 -37.5 18.501s-23.667 12.834 -35 18.501s-23 8.5 -35 8.5c-3.33301 0 -6.66602 -0.666992 -9.99902 -2s-7.33301 -4.16602 -12 -8.49902
s-9.83398 -10.333 -15.501 -18l-21.5 -30.5l-80 41c20.667 30.667 41.667 56.167 63 76.5s46.666 30.5 75.999 30.5c14 0 28.333 -2.83301 43 -8.5s28.834 -11.667 42.501 -18s26 -12.333 37 -18s19.833 -8.5 26.5 -8.5c2.66699 0 5.66699 0.666992 9 2
s7.16602 4.33301 11.499 9s9.16602 11.334 14.499 20.001s11.666 20.334 18.999 35.001z" />
    <glyph glyph-name="uni00A0" unicode="&#xa0;" horiz-adv-x="250" 
 />
    <glyph glyph-name="cent" unicode="&#xa2;" horiz-adv-x="455" 
d="M401 140c-18.667 -17.333 -36.666 -30.502 -53.999 -39.502s-35 -15.833 -53 -20.5v-67h-86v68c-42 12 -75.833 35.333 -101.5 70s-38.5 75 -38.5 121c0 22.667 3.5 44.167 10.5 64.5s16.667 38.833 29 55.5s27 30.834 44 42.501s35.833 20.167 56.5 25.5v59h86v-55
c17.333 -3.33301 35 -9.5 53 -18.5s35.333 -20.833 52 -35.5l-49 -76c-12.667 10.667 -23.334 18.834 -32.001 24.501s-16.667 10.167 -24 13.5v-201c7.33301 3.33301 15.333 8 24 14s19.667 15 33 27zM156.001 271.998c0 -20.667 4.5 -39.334 13.5 -56.001
s21.833 -29.667 38.5 -39v188c-16 -9.33301 -28.667 -22.166 -38 -38.499s-14 -34.5 -14 -54.5z" />
    <glyph glyph-name="sterling" unicode="&#xa3;" horiz-adv-x="423" 
d="M305 319c0 21.333 -2.5 39.667 -7.5 55s-11.5 27.833 -19.5 37.5s-17 16.834 -27 21.501s-20.333 7 -31 7c-21.333 0 -39.166 -7.83301 -53.499 -23.5s-21.5 -36.834 -21.5 -63.501v-54h98v-92h-98v-116h241v-92h-371v92h31v116h-31v92h31v54c0 24 4 47 12 69
s19.5 41.5 34.5 58.5s33.167 30.5 54.5 40.5s45.666 15 72.999 15c26 0 50.167 -5 72.5 -15s41.666 -24.5 57.999 -43.5s29.333 -41.833 39 -68.5s14.834 -56.667 15.501 -90h-100z" />
    <glyph glyph-name="yen" unicode="&#xa5;" horiz-adv-x="424" 
d="M402 375v-90h-100l-22 -37h122v-90h-139v-159h-101v159h-137v90h120l-21 37h-99v90h46l-92 154h113l120 -202l121 202h113l-91 -154h47z" />
    <glyph glyph-name="copyright" unicode="&#xa9;" horiz-adv-x="592" 
d="M428 141c-18.667 -16 -38.168 -28.498 -58.501 -37.498s-41.5 -13.5 -63.5 -13.5c-24 0 -46.167 4.5 -66.5 13.5s-37.666 21.333 -51.999 37s-25.666 33.834 -33.999 54.501s-12.5 43 -12.5 67s4.16699 46.333 12.5 67s20 38.667 35 54s32.5 27.5 52.5 36.5
s42 13.5 66 13.5c41.333 0 80.333 -15.667 117 -47l-37 -60c-18.667 17.333 -34 28.333 -46 33s-23.667 7 -35 7c-13.333 0 -26 -2.66699 -38 -8s-22.333 -12.833 -31 -22.5s-15.5 -20.834 -20.5 -33.501s-7.5 -26 -7.5 -40s2.5 -27.333 7.5 -40s12 -23.834 21 -33.501
s19.167 -17.334 30.5 -23.001s23.666 -8.5 36.999 -8.5c11.333 0 24.833 3 40.5 9s31.5 17.667 47.5 35zM569.999 265.002c0 -38 -7.16699 -73.833 -21.5 -107.5s-34 -63 -59 -88s-54 -44.667 -87 -59s-68.5 -21.5 -106.5 -21.5s-73.833 7.16699 -107.5 21.5s-63 34 -88 59
s-44.667 54.333 -59 88s-21.5 69.5 -21.5 107.5s7.16699 73.5 21.5 106.5s34 62 59 87s54.333 44.667 88 59s69.5 21.5 107.5 21.5s73.5 -7.16699 106.5 -21.5s62 -34 87 -59s44.667 -54 59 -87s21.5 -68.5 21.5 -106.5zM507.999 265.002c0 29.333 -5.5 57 -16.5 83
s-26 48.5 -45 67.5s-41.5 34 -67.5 45s-53.667 16.5 -83 16.5c-30 0 -58 -5.5 -84 -16.5s-48.667 -26.167 -68 -45.5s-34.5 -41.833 -45.5 -67.5s-16.5 -53.167 -16.5 -82.5c0 -30 5.5 -58 16.5 -84s26.167 -48.667 45.5 -68s42 -34.5 68 -45.5s54 -16.5 84 -16.5
c29.333 0 56.833 5.5 82.5 16.5s48.167 26.167 67.5 45.5s34.5 42 45.5 68s16.5 54 16.5 84z" />
    <glyph glyph-name="guillemotleft" unicode="&#xab;" horiz-adv-x="346" 
d="M258 224l80 -97l-56 -53l-126 150l126 150l56 -53zM113 224l81 -97l-56 -53l-126 150l126 150l56 -53z" />
    <glyph glyph-name="registered" unicode="&#xae;" horiz-adv-x="620" 
d="M601 280c0 -40 -7.66797 -77.5 -23.001 -112.5s-36 -65.5 -62 -91.5s-56.667 -46.667 -92 -62s-73 -23 -113 -23s-77.833 7.66699 -113.5 23s-66.667 36 -93 62s-47.166 56.5 -62.499 91.5s-23 72.5 -23 112.5s7.66699 77.333 23 112s36.333 65 63 91
s57.667 46.5 93 61.5s73 22.5 113 22.5s77.667 -7.5 113 -22.5s66 -35.5 92 -61.5s46.667 -56.5 62 -91.5s23 -72.167 23 -111.5zM537.999 270c0 32.667 -5.99902 63.1641 -17.999 91.4971s-28.167 53 -48.5 74s-44.333 37.667 -72 50s-57.167 18.5 -88.5 18.5
c-32 0 -62 -5.83301 -90 -17.5s-52.333 -27.5 -73 -47.5s-36.834 -43.667 -48.501 -71s-17.5 -56.666 -17.5 -87.999c0 -32 6 -61.667 18 -89s28.167 -51.166 48.5 -71.499s44.5 -36.333 72.5 -48s58 -17.5 90 -17.5c31.333 0 60.833 5.83301 88.5 17.5
s51.667 27.334 72 47.001s36.5 42.5 48.5 68.5s18 53.667 18 83zM376 133.997l-74 118.001h-37v-118h-63v293h133c38 0 65.833 -7.5 83.5 -22.5s26.5 -36.5 26.5 -64.5c0 -24.667 -6.83301 -43.834 -20.5 -57.501s-30.5 -23.167 -50.5 -28.5c25.333 -40 52 -80 80 -120h-78z
M383 336.998c0 12 -5.16797 19.5 -15.501 22.5s-21.166 4.5 -32.499 4.5h-8h-62v-55h51h22.5c7.66699 0 15.167 0.666992 22.5 2c8.66699 2 14.5 5 17.5 9s4.5 9.66699 4.5 17z" />
    <glyph glyph-name="guillemotright" unicode="&#xbb;" horiz-adv-x="346" 
d="M212 74l-56 53l80 97l-80 97l56 53l126 -150zM68 74l-56 53l80 97l-80 97l56 53l126 -150z" />
    <glyph glyph-name="onequarter" unicode="&#xbc;" horiz-adv-x="631" 
d="M103 0l371 527h80l-371 -527h-80zM102 463h-50v64h115v-291h-65v227zM572 0h-62v48h-139v33l162 232h39v-205h32v-60h-32v-48zM465 108h45v65z" />
    <glyph glyph-name="onehalf" unicode="&#xbd;" horiz-adv-x="631" 
d="M538 215c0 10 -3.83203 18.501 -11.499 25.501s-16.834 10.5 -27.501 10.5c-11.333 0 -20.833 -4.66699 -28.5 -14s-11.5 -25.333 -11.5 -48h-66c0 21.333 3 40 9 56s14 29.167 24 39.5s21.333 18 34 23s25.667 7.5 39 7.5c14 0 27.333 -2.66699 40 -8
s23.834 -12.5 33.501 -21.5s17.167 -19.667 22.5 -32s8 -25.5 8 -39.5c0 -22 -5.5 -40.667 -16.5 -56s-22.5 -30.333 -34.5 -45l-4 -5v1l-22.5 -22.5c-5.66699 -5.66699 -12.834 -13.5 -21.501 -23.5h98v-63h-198v49l54.5 58l51.5 57c6.66699 7.33301 13 15.666 19 24.999
s9 18 9 26zM75.001 0.000976562l371 527h80l-371 -527h-80zM102.001 463.001h-50v64h115v-291h-65v227z" />
    <glyph glyph-name="threequarters" unicode="&#xbe;" horiz-adv-x="631" 
d="M143 218c-12.667 0 -24.832 1.99805 -36.499 5.99805s-22.167 10.167 -31.5 18.5s-16.833 19.333 -22.5 33s-8.5 30.5 -8.5 50.5h62c0 -17.333 3.5 -30.166 10.5 -38.499s16.167 -12.5 27.5 -12.5s20.5 3.66699 27.5 11s10.5 16.333 10.5 27c0 14 -3.5 24 -10.5 30
s-18.833 9 -35.5 9v49c17.333 0 28.666 3.66699 33.999 11s8 16.666 8 27.999c0 20 -10.333 30 -31 30c-7.33301 0 -15 -3.66699 -23 -11s-11.333 -20.666 -10 -39.999h-61c0.666992 36 9.16699 63.333 25.5 82s39.5 28 69.5 28c26 0 47.833 -8.66699 65.5 -26
s26.5 -38.666 26.5 -63.999c0 -22 -8 -41.667 -24 -59c8.66699 -8.66699 15.5 -18.667 20.5 -30s7.5 -23.333 7.5 -36c0 -28 -9.33301 -51 -28 -69s-43 -27 -73 -27zM127.002 -0.00195312l371 527h80l-371 -527h-80zM572.002 -0.00195312h-62v48h-139v33l162 232h39v-205h32
v-60h-32v-48zM465.002 107.998h45v65z" />
    <glyph glyph-name="multiply" unicode="&#xd7;" horiz-adv-x="388" 
d="M319 13l-124 124l-124 -124l-53 53l124 124l-124 124l53 53l124 -124l124 124l53 -53l-124 -124l124 -124z" />
    <glyph glyph-name="divide" unicode="&#xf7;" horiz-adv-x="393" 
d="M246 316c0 -15.333 -5.16699 -28.166 -15.5 -38.499s-22.833 -15.5 -37.5 -15.5c-15.333 0 -28.166 5.16699 -38.499 15.5s-15.5 22.833 -15.5 37.5c0 15.333 5.16699 28.166 15.5 38.499s22.833 15.5 37.5 15.5c15.333 0 28.166 -5.16699 38.499 -15.5
s15.5 -22.833 15.5 -37.5zM19 154v81h356v-81h-356zM246 74c0 -15.333 -5.16699 -28.167 -15.5 -38.5s-22.833 -15.5 -37.5 -15.5c-15.333 0 -28.166 5.16699 -38.499 15.5s-15.5 22.833 -15.5 37.5c0 15.333 5.16699 28.166 15.5 38.499s22.833 15.5 37.5 15.5
c15.333 0 28.166 -5.16699 38.499 -15.5s15.5 -23.166 15.5 -38.499v1z" />
    <glyph glyph-name="kokaithai" unicode="&#xe01;" horiz-adv-x="486" 
d="M448 0l-97.001 0.00195312v257c0 32 -11.333 58.333 -34 79s-53 31 -91 31c-35.333 0 -65.666 -12.667 -90.999 -38l24 -26v-303h-97v272l-48 51c24.667 42 55.167 74.833 91.5 98.5s76.5 35.5 120.5 35.5c32 0 61.5 -5 88.5 -15s50.5 -23.833 70.5 -41.5
s35.5 -38.834 46.5 -63.501s16.5 -51.334 16.5 -80.001v-257z" />
    <glyph glyph-name="khokhaithai" unicode="&#xe02;" horiz-adv-x="420" 
d="M382 145c0 -21.333 -4.33105 -41.168 -12.998 -59.501s-20.334 -34.333 -35.001 -48s-31.834 -24.5 -51.501 -32.5s-40.834 -12 -63.501 -12c-22 0 -43 4 -63 12s-37.333 18.833 -52 32.5s-26.334 29.667 -35.001 48s-13 38.166 -13 59.499
c0 18.667 2.5 34.834 7.5 48.501s12 25.834 21 36.501s19.833 20.5 32.5 29.5s26.667 18.167 42 27.5c9.33301 6 16 11.5 20 16.5s6 12.167 6 21.5c0 13.333 -4.16699 24 -12.5 32s-19.166 12 -32.499 12c-8 0 -17 -3.16699 -27 -9.5s-22.333 -21.166 -37 -44.499l-76 48
c19.333 32.667 40.333 56.5 63 71.5s48 22.5 76 22.5c19.333 0 37.5 -3.16699 54.5 -9.5s31.833 -15.333 44.5 -27s22.667 -25.5 30 -41.5s11 -33.333 11 -52c0 -19.333 -2.5 -35.5 -7.5 -48.5s-12 -24.333 -21 -34s-19.667 -18.5 -32 -26.5l-40.5 -26
c-9.33301 -6.66699 -16.166 -13.334 -20.499 -20.001s-6.5 -15.667 -6.5 -27c0 -17.333 6.5 -32 19.5 -44s29.167 -18 48.5 -18s35.333 6 48 18s19 26.667 19 44v305h96v-305z" />
    <glyph glyph-name="khokhuatthai" unicode="&#xe03;" horiz-adv-x="410" 
d="M372 145c0 -21.333 -4.32812 -41.1641 -12.9951 -59.4971s-20.334 -34.166 -35.001 -47.499s-31.834 -24 -51.501 -32s-40.834 -12 -63.501 -12c-22 0 -43 4 -63 12s-37.333 18.667 -52 32s-26.334 29.166 -35.001 47.499s-13 38.166 -13 59.499
c0 17.333 2.33301 32.666 7 45.999s11.167 25.5 19.5 36.5s18.5 21 30.5 30s25.333 18.167 40 27.5c8.66699 5.33301 16.667 11.166 24 17.499s11 15.166 11 26.499c0 7.33301 -2.33301 14.666 -7 21.999l-54 -44l-112 88l58 65l52 -41l48 39
c36 -13.333 63.167 -31.166 81.5 -53.499s27.5 -47.833 27.5 -76.5c0 -19.333 -2.5 -35 -7.5 -47s-11.833 -22.5 -20.5 -31.5s-18.834 -17 -30.501 -24l-37.5 -23.5c-11.333 -7.33301 -19.833 -15.166 -25.5 -23.499s-8.5 -19.5 -8.5 -33.5
c0 -16.667 6.33301 -31.167 19 -43.5s28.667 -18.5 48 -18.5s35.333 6.16699 48 18.5s19 26.833 19 43.5v305h96v-305z" />
    <glyph glyph-name="khokhwaithai" unicode="&#xe04;" horiz-adv-x="470" 
d="M432 0h-97v272c0 12.667 -2.66699 24.667 -8 36s-12.5 21.166 -21.5 29.499s-19.5 15 -31.5 20s-25 7.5 -39 7.5s-27.167 -2.5 -39.5 -7.5s-23 -11.667 -32 -20s-16 -18.166 -21 -29.499s-7.5 -23.333 -7.5 -36h100v-89h-100v-183h-97v272
c0 25.333 5.16699 49.166 15.5 71.499s24.5 41.666 42.5 57.999s38.833 29.333 62.5 39s49.167 14.5 76.5 14.5c26.667 0 52 -4.83301 76 -14.5s45 -22.667 63 -39s32.167 -35.666 42.5 -57.999s15.5 -46.166 15.5 -71.499v-272z" />
    <glyph glyph-name="khokhonthai" unicode="&#xe05;" horiz-adv-x="492" 
d="M454 0l-97.001 -0.000976562v284c0 28 -10.333 51.667 -31 71l-81 -68l-79 68c-9.33301 -9.33301 -16.833 -20.333 -22.5 -33s-8.5 -25.667 -8.5 -39v-9h110v-91h-110v-183h-97v284c0 38.667 11.667 73.667 35 105s58 57 104 77l69 -59l70 58
c44.667 -19.333 78.834 -44.666 102.501 -75.999s35.5 -66.333 35.5 -105v-284z" />
    <glyph glyph-name="khorakhangthai" unicode="&#xe06;" horiz-adv-x="473" 
d="M435 161c0 -26 -5.1709 -49.498 -15.5039 -70.498s-23.666 -38.833 -39.999 -53.5s-35.166 -25.834 -56.499 -33.501s-43 -11.5 -65 -11.5s-43.5 4.16699 -64.5 12.5s-39.833 22.166 -56.5 41.499v-46h-96v186c0 23.333 4 42.833 12 58.5s17.333 29 28 40
s21.334 20.5 32.001 28.5s18.667 16 24 24c1.33301 2.66699 2.33301 7 3 13s0.333984 10.667 -0.999023 14l-39 -35l-90 71l50 60l42 -32l41 33c60 -23.333 90 -60 90 -110c0 -20 -5 -36.5 -15 -49.5s-21 -25 -33 -36s-23 -21.833 -33 -32.5s-15 -23.334 -15 -38.001
c0 -15.333 3.16699 -29.666 9.5 -42.999s15 -25.166 26 -35.499s23.333 -18.5 37 -24.5s28.167 -9 43.5 -9c23.333 0 43.333 6.66699 60 20s25 32.666 25 57.999v289h97v-289z" />
    <glyph glyph-name="ngonguthai" unicode="&#xe07;" horiz-adv-x="397" 
d="M359 100c0 -14.667 -3 -28.3311 -9 -40.998s-14 -23.834 -24 -33.501s-21.833 -17.334 -35.5 -23.001s-28.167 -8.5 -43.5 -8.5c-23.333 0 -44 5.83301 -62 17.5s-31.667 26.5 -41 44.5l-133 271l90 32l131 -266c3.33301 -5.33301 8.33301 -8 15 -8
c4.66699 0 8.5 1.5 11.5 4.5s4.5 6.5 4.5 10.5v260h-61v90h157v-350z" />
    <glyph glyph-name="chochanthai" unicode="&#xe08;" horiz-adv-x="436" 
d="M398 278c0 -22 -3.99902 -42.332 -11.999 -60.999l-85 -217h-90l-97 265h101l42 -116l38 98c4 10.667 6 21 6 31c0 12 -2.5 23.167 -7.5 33.5s-11.667 19.5 -20 27.5s-18.333 14.333 -30 19s-24.167 7 -37.5 7c-15.333 0 -28.5 -2.83301 -39.5 -8.5
s-20.333 -13.167 -28 -22.5s-13.667 -20 -18 -32s-7.5 -24 -9.5 -36h-97c2.66699 30 9.66699 56.833 21 80.5s25.5 43.5 42.5 59.5s36.5 28.333 58.5 37s45.333 13 70 13c26.667 0 51.667 -4.66699 75 -14s43.666 -22 60.999 -38s31 -34.833 41 -56.5s15 -44.834 15 -69.501
z" />
    <glyph glyph-name="chochingthai" unicode="&#xe09;" horiz-adv-x="449" 
d="M410 -1l-95.9971 0.00683594v37c-15.333 -14.667 -32.333 -25.334 -51 -32.001s-37.667 -10 -57 -10c-21.333 0.666992 -42 5.16699 -62 13.5s-37.833 19.666 -53.5 33.999s-28.334 31.666 -38.001 51.999s-14.5 42.833 -14.5 67.5v22h-27v88h123v-112
c0 -18 4.5 -32.667 13.5 -44s20.167 -19.5 33.5 -24.5s27.666 -7 42.999 -6s29.666 5.16699 42.999 12.5s24.5 17.666 33.5 30.999s13.5 29.666 13.5 48.999v101c0 24 -9.16699 44.5 -27.5 61.5s-40.833 25.5 -67.5 25.5c-19.333 0 -37.666 -4.5 -54.999 -13.5
s-30.333 -25.167 -39 -48.5h-101c17.333 53.333 43.5 92.166 78.5 116.499s73.833 36.5 116.5 36.5c26 0 50.667 -4.66699 74 -14s43.666 -22 60.999 -38s31 -34.833 41 -56.5s15 -44.834 15 -69.501v-279z" />
    <glyph glyph-name="chochangthai" unicode="&#xe0a;" horiz-adv-x="429" 
d="M362 347c15.333 -19.333 23.0059 -42.665 23.0059 -69.998v-130c0 -21.333 -4.33301 -41.333 -13 -60s-20.334 -34.834 -35.001 -48.501s-31.834 -24.5 -51.501 -32.5s-40.834 -12 -63.501 -12c-22 0 -43 4 -63 12s-37.333 18.833 -52 32.5
s-26.334 29.834 -35.001 48.501s-13 38.667 -13 60c0 20.667 2.5 38 7.5 52s12.167 26.167 21.5 36.5s20.5 19.666 33.5 27.999l42.5 26.5c9.33301 6 16 11.5 20 16.5s6 12.167 6 21.5c0 13.333 -4.16699 23.833 -12.5 31.5s-19.833 11.5 -34.5 11.5
c-8 0 -16.5 -3.33301 -25.5 -10s-20.167 -22.334 -33.5 -47.001l-81 51c19.333 34 40.666 58.333 63.999 73s49 22 77 22s53.167 -6.83301 75.5 -20.5s39.166 -31.5 50.499 -53.5l103 107l69 -63zM189.006 199.001c-10 -6.66699 -18.167 -13.6689 -24.5 -21.002
s-9.5 -17.666 -9.5 -30.999c0 -17.333 6.5 -32 19.5 -44s28.833 -18 47.5 -18s34.5 6 47.5 18s19.5 26.667 19.5 44v130c0 4 -0.333008 7.83301 -1 11.5s-2.33398 7.83398 -5.00098 12.501c-2 -13.333 -6 -24.833 -12 -34.5s-13.167 -18.167 -21.5 -25.5
s-17.666 -14.333 -27.999 -21z" />
    <glyph glyph-name="sosothai" unicode="&#xe0b;" horiz-adv-x="427" 
d="M360 347c6.66699 -9.33301 12.1709 -20.001 16.5039 -32.001s6.5 -24.667 6.5 -38v-131c0 -21.333 -4.33301 -41.166 -13 -59.499s-20.5 -34.333 -35.5 -48s-32.333 -24.5 -52 -32.5s-40.834 -12 -63.501 -12s-43.834 4 -63.501 12s-36.834 18.833 -51.501 32.5
s-26.334 29.667 -35.001 48s-13 38.166 -13 59.499c0 33.333 6.83301 59 20.5 77s28.667 32.5 45 43.5l45 29.5c13.667 8.66699 20.5 20.334 20.5 35.001c0 8 -1.66699 15.333 -5 22l-56 -46l-114 86l56 68l56 -40l49 41c46 -18 77.667 -42.667 95 -74l101 107l69 -64z
M187.004 200.999c-10.667 -7.33301 -19.167 -15.001 -25.5 -23.001s-9.5 -18.667 -9.5 -32c0 -16.667 6.5 -31.167 19.5 -43.5s28.833 -18.5 47.5 -18.5c19.333 0 35.333 6.16699 48 18.5s19 27.166 19 44.499v129c0 6.66699 -2 14.667 -6 24
c-2.66699 -12.667 -7 -23.667 -13 -33s-13 -17.666 -21 -24.999s-17 -14.166 -27 -20.499z" />
    <glyph glyph-name="chochoethai" unicode="&#xe0c;" horiz-adv-x="766" 
d="M728 162c0 -25.333 -4.49902 -48.3301 -13.499 -68.9971s-21 -38.334 -36 -53.001s-32.333 -26 -52 -34s-39.834 -12 -60.501 -12c-19.333 0.666992 -38.333 4.66699 -57 12s-36.667 19 -54 35v-41h-98v257c0 32 -11.667 58.333 -35 79s-54.333 31 -93 31
c-36 0 -67.333 -13 -94 -39l24 -24v-214l65 1v-91h-162v271l-50 51c25.333 42 56.666 75 93.999 99s78.333 36 123 36c32.667 0 62.834 -5 90.501 -15s51.5 -23.833 71.5 -41.5s35.667 -38.834 47 -63.501s17 -51.334 17 -80.001v-56c0 -18.667 3.16699 -35.167 9.5 -49.5
s14.5 -26.5 24.5 -36.5s21.167 -17.5 33.5 -22.5s24.5 -7.5 36.5 -7.5c18.667 0 35 6.16699 49 18.5s21 31.833 21 58.5v288h99v-288z" />
    <glyph glyph-name="yoyingthai" unicode="&#xe0d;" horiz-adv-x="762" 
d="M723 -1c0 -24 -4.83496 -46.498 -14.502 -67.498s-23 -39.333 -40 -55s-36.833 -28 -59.5 -37s-47 -13.5 -73 -13.5c-36 0 -68.833 9.16699 -98.5 27.5s-56.167 46.833 -79.5 85.5l83 50c16 -28 31.5 -47.167 46.5 -57.5s31.167 -15.5 48.5 -15.5
c24.667 0 45.834 7.66699 63.501 23s26.5 35 26.5 59v21c-11.333 -9.33301 -24.5 -16 -39.5 -20s-30.167 -6 -45.5 -6c-25.333 0 -49.166 4.5 -71.499 13.5s-41.833 21.167 -58.5 36.5s-29.667 33.166 -39 53.499s-14 42.166 -14 65.499v96c0 32 -11.5 58 -34.5 78
s-54.5 30 -94.5 30c-17.333 0 -34 -3.33301 -50 -10s-30.333 -15.667 -43 -27l25 -24v-214h65v-91h-164v272l-49 51c25.333 42 56.666 74.833 93.999 98.5s78 35.5 122 35.5c32.667 0 62.834 -5 90.501 -15s51.667 -23.833 72 -41.5s36.166 -38.834 47.499 -63.501
s17 -51.334 17 -80.001v-95c0 -21.333 8 -39.666 24 -54.999s36.333 -23 61 -23s44.834 7.33301 60.501 22s23.5 33.334 23.5 56.001v289h98v-452z" />
    <glyph glyph-name="dochadathai" unicode="&#xe0e;" horiz-adv-x="493" 
d="M336 -191c-28 19.333 -51.834 32.668 -71.501 40.001s-39.167 11 -58.5 11s-39.166 -3.66699 -59.499 -11s-44.5 -21 -72.5 -41l-53 70c36 24.667 68.333 42 97 52s58 15 88 15c42.667 0 82 -8.33301 118 -25l34 32v305c0 32 -11.333 58.167 -34 78.5s-53 30.5 -91 30.5
c-16.667 0 -33 -3.5 -49 -10.5s-30 -16.167 -42 -27.5l24 -25v-303h-139v91h42v180l-48 51c24.667 42 55.167 74.833 91.5 98.5s76.5 35.5 120.5 35.5c32 0 61.5 -5 88.5 -15s50.5 -23.667 70.5 -41s35.5 -38.333 46.5 -63s16.5 -51.334 16.5 -80.001v-338z" />
    <glyph glyph-name="topatakthai" unicode="&#xe0f;" horiz-adv-x="493" 
d="M325 -194l-78 70.002l-78 -70l-133 119l56 60l80 -68l75 67l75 -67l37 31v309c0 32 -11.5 58 -34.5 78s-53.5 30 -91.5 30c-16.667 0 -33 -3.33301 -49 -10s-30 -15.667 -42 -27l24 -25v-303h-139v91h42v180l-48 51c25.333 42 56 74.833 92 98.5s76 35.5 120 35.5
c32 0 61.667 -5 89 -15s50.833 -23.833 70.5 -41.5s35 -38.834 46 -63.501s16.5 -51.334 16.5 -80.001v-335z" />
    <glyph glyph-name="thothanthai" unicode="&#xe10;" horiz-adv-x="436" 
d="M366 375c10 -14 17.834 -29.333 23.501 -46s8.5 -34 8.5 -52c0 -16 -0.833008 -29.5 -2.5 -40.5s-5.66699 -25 -12 -42s-16 -40.333 -29 -70l-53.5 -125.5h-90l-98 266h101l43 -117l38 98c4 10.667 6 21 6 31c0 12 -2.5 23.167 -7.5 33.5s-11.667 19.5 -20 27.5
s-18.333 14.333 -30 19s-24.167 7 -37.5 7c-15.333 0 -28.5 -2.83301 -39.5 -8.5s-20.333 -13 -28 -22s-13.834 -19.5 -18.501 -31.5s-8 -24 -10 -36h-96c2.66699 30 9.66699 56.667 21 80s25.5 43 42.5 59s36.5 28.333 58.5 37s45.333 13 70 13
c30.667 0 59 -6.33301 85 -19l57 63l73 -63zM327.001 -195l-80 73l-81 -73l-137 121l58 56l80 -68l81 71l78 -68c-0.666992 2.66699 -1 7.5 -1 14.5v21.5v28h91v-98z" />
    <glyph glyph-name="thonangmonthothai" unicode="&#xe11;" horiz-adv-x="488" 
d="M456 0l-96.999 0.00195312v321c0 10 -1.33301 17.333 -4 22l-216 -343h-83v182c0 23.333 3.16699 44 9.5 62s13.166 34 20.499 48c8.66699 16.667 16.5 31 23.5 43s9.16699 22.333 6.5 31l-43 -41l-84 82l51 52l33 -32l43 33c60.667 -24 91 -59.667 91 -107
c0 -14.667 -3 -28.334 -9 -41.001s-12.833 -25.334 -20.5 -38.001s-14.5 -25.667 -20.5 -39s-9 -28 -9 -44v-9l167 272c48 -4.66699 83.5 -19.667 106.5 -45s34.5 -56 34.5 -92v-317z" />
    <glyph glyph-name="thophuthaothai" unicode="&#xe12;" horiz-adv-x="777" 
d="M739 161c0 -26 -4.33301 -49.1689 -13 -69.502s-20.334 -37.666 -35.001 -51.999s-31.334 -25.333 -50.001 -33s-38.334 -11.5 -59.001 -11.5c-18.667 0 -38.167 3.66699 -58.5 11s-39.5 18.666 -57.5 33.999v-40h-98v289c0 13.333 -3.16699 25.833 -9.5 37.5
s-14.166 21.167 -23.499 28.5l-76 -56l-76 57c-16 -11.333 -30 -28 -42 -50s-18 -51 -18 -87c0 -42 9 -75 27 -99s41 -36 69 -36c2.66699 0 5.33398 0.333008 8.00098 1s5.83398 2 9.50098 4s8.16699 5 13.5 9s12 9.66699 20 17l70 -64c-24.667 -20.667 -46 -35.5 -64 -44.5
s-37 -13.5 -57 -13.5c-32.667 0 -61.167 6.16699 -85.5 18.5s-44.5 29 -60.5 50s-28 45 -36 72s-12 55.5 -12 85.5c0 62.667 15.333 114.334 46 155.001s72 69.667 124 87l64 -50l65 50c44 -15.333 78.667 -37 104 -65s38 -63 38 -105v-27
c0 -8.66699 0.166992 -18.667 0.5 -30s0.5 -23.333 0.5 -36c0 -18 3.16699 -34.167 9.5 -48.5s14.333 -26.333 24 -36s20.667 -17 33 -22s24.5 -7.5 36.5 -7.5c18.667 -0.666992 35 5.33301 49 18s21 32.334 21 59.001v289h99v-289z" />
    <glyph glyph-name="nonenthai" unicode="&#xe13;" horiz-adv-x="761" 
d="M625 0l-0.000976562 35.999c-17.333 -15.333 -35.5 -26.333 -54.5 -33s-38.167 -9.66699 -57.5 -9c-20.667 0.666992 -40.334 5.16699 -59.001 13.5s-35.167 19.666 -49.5 33.999s-25.666 31.666 -33.999 51.999s-12.5 42.833 -12.5 67.5v96
c0 32 -11.5 58.167 -34.5 78.5s-54.5 30.5 -94.5 30.5c-17.333 0 -34 -3.5 -50 -10.5s-30.333 -16.167 -43 -27.5l23 -24v-214h66v-90h-163v271l-49 51c25.333 42 56.5 74.833 93.5 98.5s77.5 35.5 121.5 35.5c32.667 0 62.834 -4.83301 90.501 -14.5
s51.667 -23.334 72 -41.001s36.166 -38.667 47.499 -63s17 -51.166 17 -80.499v-96c0 -26 7 -45.5 21 -58.5s30.333 -19.5 49 -19.5c12 0 23.833 2.33301 35.5 7s22.334 11.334 32.001 20.001s17.5 19.334 23.5 32.001s9 27.334 9 44.001v264h98v-450h-98z" />
    <glyph glyph-name="dodekthai" unicode="&#xe14;" horiz-adv-x="494" 
d="M358 -1l-0.00195312 277.999c0 19.333 -5.83301 36 -17.5 50s-26.167 24.333 -43.5 31s-36.166 9.33398 -56.499 8.00098s-39.166 -7.5 -56.499 -18.5s-31.833 -27.333 -43.5 -49s-17.5 -49.167 -17.5 -82.5c0 -40.667 9 -72.667 27 -96s41 -35 69 -35
c7.33301 0 14.5 1.5 21.5 4.5s15.5 9.83301 25.5 20.5l62 -63c-20 -20.667 -38.333 -34.5 -55 -41.5s-34.667 -10.5 -54 -10.5c-32 0 -60.167 5.83301 -84.5 17.5s-44.666 27.667 -60.999 48s-28.5 43.833 -36.5 70.5s-12 55 -12 85c0 42 6.66699 78 20 108
s30.666 54.833 51.999 74.5s45.833 34.167 73.5 43.5s55.5 14 83.5 14c24.667 0 49.167 -4 73.5 -12s46 -19.5 65 -34.5s34.333 -33.5 46 -55.5s17.5 -47 17.5 -75v-280h-98z" />
    <glyph glyph-name="totaothai" unicode="&#xe15;" horiz-adv-x="497" 
d="M362 0l-0.00195312 288.003c0 13.333 -2.83301 25.666 -8.5 36.999s-13.167 20.666 -22.5 27.999l-76 -57l-76 59c-15.333 -12 -28.666 -29.333 -39.999 -52s-17 -51 -17 -85c0 -40.667 9.16699 -72.834 27.5 -96.501s40.5 -35.5 66.5 -35.5
c7.33301 0 14.833 1.83301 22.5 5.5s17.167 12.167 28.5 25.5l63 -64c-21.333 -22.667 -40.666 -37.834 -57.999 -45.501s-36 -11.5 -56 -11.5c-31.333 0 -58.833 6 -82.5 18s-43.5 28.167 -59.5 48.5s-28 43.833 -36 70.5s-12 55 -12 85
c0 62.667 14.667 114.334 44 155.001s70 69.667 122 87l64 -49l63 49c42.667 -15.333 76.667 -37 102 -65s38 -63 38 -105v-290h-97z" />
    <glyph glyph-name="thothungthai" unicode="&#xe16;" horiz-adv-x="486" 
d="M448 0l-97 0.00195312l1 257c0 32 -11.5 58.333 -34.5 79s-53.5 31 -91.5 31c-16.667 0 -33 -3.5 -49 -10.5s-30 -16.167 -42 -27.5l24 -25v-214h64v-90h-161v272l-48 51c26 42 56.833 74.833 92.5 98.5s75.5 35.5 119.5 35.5c32 0 61.5 -5 88.5 -15
s50.5 -23.833 70.5 -41.5s35.5 -38.834 46.5 -63.501s16.5 -51.334 16.5 -80.001v-257z" />
    <glyph glyph-name="thothahanthai" unicode="&#xe17;" horiz-adv-x="470" 
d="M432 0l-97.001 -0.000976562v289c0 25.333 -8.33301 44.833 -25 58.5s-36.667 20.5 -60 20.5c-15.333 0 -29.833 -3 -43.5 -9s-25.834 -14.167 -36.501 -24.5s-19.167 -22.166 -25.5 -35.499s-9.5 -27.333 -9.5 -42v-257h-97v451h97v-42
c36.667 32.667 75.334 49 116.001 49c22.667 0 44.834 -3.5 66.501 -10.5s41 -17.667 58 -32s30.667 -32 41 -53s15.5 -45.5 15.5 -73.5v-289z" />
    <glyph glyph-name="thothongthai" unicode="&#xe18;" horiz-adv-x="455" 
d="M334 298c-13.333 26.667 -31.5 46.1621 -54.5 58.4951s-45.833 19.5 -68.5 21.5s-42.167 0 -58.5 -6s-24.5 -13.667 -24.5 -23c0 -6 4.83301 -11.333 14.5 -16s20.667 -9 33 -13s24.333 -7.16699 36 -9.5s19.5 -3.83301 23.5 -4.5c20 -4.66699 40.667 -10.334 62 -17.001
s41 -15.667 59 -27s32.667 -25.666 44 -42.999s17 -38.666 17 -63.999s-5.16699 -48.166 -15.5 -68.499s-24.333 -37.5 -42 -51.5s-37.834 -24.667 -60.501 -32s-46.334 -11 -71.001 -11c-25.333 0 -49.333 3.66699 -72 11s-42.834 18 -60.501 32s-31.667 31.167 -42 51.5
s-15.5 43.166 -15.5 68.499v82h97c-0.666992 2 -1 1 -1 -3v-78c0.666992 -22 9 -39.667 25 -53s39 -20 69 -20c28.667 0 51.334 6.66699 68.001 20s25 30.666 25 51.999c0 12 -3.16699 21.833 -9.5 29.5s-14.833 14.334 -25.5 20.001s-23 10.334 -37 14.001l-44 11.5
c-20 4.66699 -40.5 9.83398 -61.5 15.501s-39.833 12.834 -56.5 21.501s-30.334 19.5 -41.001 32.5s-16 29.167 -16 48.5c0 16 4.83301 30.667 14.5 44s22.834 24.833 39.501 34.5s35.5 17.334 56.5 23.001s43.167 8.5 66.5 8.5c20.667 0.666992 41.334 -1.33301 62.001 -6
s40.334 -12.167 59.001 -22.5s36 -24 52 -41s29.333 -37.5 40 -61.5z" />
    <glyph glyph-name="nonuthai" unicode="&#xe19;" horiz-adv-x="470" 
d="M335 -1l-0.000976562 51.998c-16 -19.333 -34.667 -34 -56 -44s-42.666 -15 -63.999 -15c-22 0 -43.667 3.83301 -65 11.5s-40.333 18.834 -57 33.501s-30 32.5 -40 53.5s-15 44.5 -15 70.5v289h97v-289c0 -25.333 8.33301 -44.666 25 -57.999s36.667 -20 60 -20
c14 0 27.833 3.66699 41.5 11s26 16.833 37 28.5s19.833 24.667 26.5 39s10 28.833 10 43.5v245h97v-451h-97z" />
    <glyph glyph-name="bobaimaithai" unicode="&#xe1a;" horiz-adv-x="470" 
d="M432 177c0 -25.333 -5.16699 -49.166 -15.5 -71.499s-24.5 -41.833 -42.5 -58.5s-39 -29.667 -63 -39s-49.333 -14 -76 -14c-27.333 0 -52.833 4.66699 -76.5 14s-44.5 22.333 -62.5 39s-32.167 36.167 -42.5 58.5s-15.5 46.166 -15.5 71.499v273h97v-273
c0 -25.333 9.5 -47 28.5 -65s42.833 -27 71.5 -27c14 0 27 2.5 39 7.5s22.5 11.667 31.5 20s16.167 18 21.5 29s8 22.833 8 35.5v273h97v-273z" />
    <glyph glyph-name="poplathai" unicode="&#xe1b;" horiz-adv-x="470" 
d="M432 177c0 -25.333 -5.16699 -49.166 -15.5 -71.499s-24.5 -41.833 -42.5 -58.5s-39 -29.667 -63 -39s-49.333 -14 -76 -14c-27.333 0 -52.833 4.66699 -76.5 14s-44.5 22.333 -62.5 39s-32.167 36.167 -42.5 58.5s-15.5 46.166 -15.5 71.499v273h97v-273
c0 -25.333 9.5 -47 28.5 -65s42.833 -27 71.5 -27c14 0 27 2.5 39 7.5s22.5 11.667 31.5 20s16.167 18 21.5 29s8 22.833 8 35.5v474h97v-474z" />
    <glyph glyph-name="phophungthai" unicode="&#xe1c;" horiz-adv-x="527" 
d="M489 123c0 -18 -3.66504 -34.666 -10.998 -49.999s-17.166 -28.666 -29.499 -39.999s-26.833 -20.333 -43.5 -27s-34.334 -10 -53.001 -10c-34.667 0 -64.334 10 -89.001 30c-24 -20 -53.333 -30 -88 -30c-18.667 0 -36.334 3.33301 -53.001 10s-31.167 15.667 -43.5 27
s-22.166 24.666 -29.499 39.999s-11 32 -11 50v149c0 26 5.5 50 16.5 72s26.5 41.333 46.5 58s44.167 29.667 72.5 39s60.166 14 95.499 14v-90c-46 0 -79.833 -9.33301 -101.5 -28s-32.5 -40.334 -32.5 -65.001v-149c0 -10 3.83301 -18.667 11.5 -26s17.167 -11 28.5 -11
s20.833 3.66699 28.5 11s11.5 16 11.5 26v170h97v-170c0 -10 3.83301 -18.667 11.5 -26s17.167 -11 28.5 -11s20.833 3.66699 28.5 11s11.5 16 11.5 26v327h97v-327z" />
    <glyph glyph-name="fofathai" unicode="&#xe1d;" horiz-adv-x="527" 
d="M489 123c0 -18 -3.66504 -34.666 -10.998 -49.999s-17.166 -28.666 -29.499 -39.999s-26.833 -20.333 -43.5 -27s-34.334 -10 -53.001 -10c-34.667 0 -64.334 10 -89.001 30c-24 -20 -53.333 -30 -88 -30c-18.667 0 -36.334 3.33301 -53.001 10s-31.167 15.667 -43.5 27
s-22.166 24.666 -29.499 39.999s-11 32 -11 50v149c0 26 5.5 50 16.5 72s26.5 41.333 46.5 58s44.167 29.667 72.5 39s60.166 14 95.499 14v-90c-46 0 -79.833 -9.33301 -101.5 -28s-32.5 -40.334 -32.5 -65.001v-149c0 -10 3.83301 -18.667 11.5 -26s17.167 -11 28.5 -11
s20.833 3.66699 28.5 11s11.5 16 11.5 26v170h97v-170c0 -10 3.83301 -18.667 11.5 -26s17.167 -11 28.5 -11s20.833 3.66699 28.5 11s11.5 16 11.5 26v528h97v-528z" />
    <glyph glyph-name="phophanthai" unicode="&#xe1e;" horiz-adv-x="545" 
d="M507 127c0 -18.667 -3.66699 -36 -11 -52s-17.5 -30 -30.5 -42s-28 -21.333 -45 -28s-35.167 -10 -54.5 -10c-36 0 -67 11 -93 33c-26 -22 -57 -33 -93 -33c-19.333 0 -37.666 3.33301 -54.999 10s-32.5 16 -45.5 28s-23.167 26 -30.5 42s-11 33.333 -11 52v323h97v-323
c0 -11.333 4.16699 -21 12.5 -29s19.166 -12 32.499 -12c12.667 0 23.167 4 31.5 12s12.5 17.667 12.5 29v323h97v-323c0 -11.333 4.16699 -21 12.5 -29s19.166 -12 32.499 -12c12.667 0 23.334 4 32.001 12s13 17.667 13 29v323h96v-323z" />
    <glyph glyph-name="fofanthai" unicode="&#xe1f;" horiz-adv-x="545" 
d="M507 127c0 -18.667 -3.66699 -36 -11 -52s-17.5 -30 -30.5 -42s-28 -21.333 -45 -28s-35.167 -10 -54.5 -10c-36 0 -67 11 -93 33c-26 -22 -57 -33 -93 -33c-19.333 0 -37.666 3.33301 -54.999 10s-32.5 16 -45.5 28s-23.167 26 -30.5 42s-11 33.333 -11 52v323h97v-323
c0 -11.333 4.16699 -21 12.5 -29s19.166 -12 32.499 -12c12.667 0 23.167 4 31.5 12s12.5 17.667 12.5 29v323h97v-323c0 -11.333 4.16699 -21 12.5 -29s19.166 -12 32.499 -12c12.667 0 23.334 4 32.001 12s13 17.667 13 29v524h96v-524z" />
    <glyph glyph-name="phosamphaothai" unicode="&#xe20;" horiz-adv-x="493" 
d="M359 0l0.00195312 257.002c0 32 -11.5 58.333 -34.5 79s-53.5 31 -91.5 31c-16.667 0 -32.834 -3.5 -48.501 -10.5s-29.834 -16.167 -42.501 -27.5l24 -25v-304h-139v90h42v182l-48 51c25.333 42 56 74.833 92 98.5s76 35.5 120 35.5c32 0 61.667 -5 89 -15
s50.833 -23.833 70.5 -41.5s35 -38.834 46 -63.501s16.5 -51.334 16.5 -80.001v-257h-96z" />
    <glyph glyph-name="momathai" unicode="&#xe21;" horiz-adv-x="470" 
d="M432 161c0 -26 -5.00098 -49.498 -15.001 -70.498s-23.333 -38.833 -40 -53.5s-35.667 -25.834 -57 -33.501s-43 -11.5 -65 -11.5c-21.333 0 -42.666 5 -63.999 15s-40 24.667 -56 44v-52h-97v451h97v-245c0 -14.667 3.33301 -29.167 10 -43.5s15.5 -27.333 26.5 -39
s23.333 -21.167 37 -28.5s27.5 -11 41.5 -11c23.333 0 43.333 6.66699 60 20s25 32.666 25 57.999v289h97v-289z" />
    <glyph glyph-name="yoyakthai" unicode="&#xe22;" horiz-adv-x="453" 
d="M414 179c0 -26 -4.99707 -50.168 -14.9971 -72.501s-23.667 -41.833 -41 -58.5s-37.666 -29.834 -60.999 -39.501s-48 -14.5 -74 -14.5c-24.667 0 -48.167 4.5 -70.5 13.5s-42 21.5 -59 37.5s-31 35.333 -42 58s-17.5 47.667 -19.5 75l57 57
c-15.333 14.667 -27.833 29.334 -37.5 44.001s-14.5 33.667 -14.5 57c0 16.667 3.33301 32.334 10 47.001s15.5 27.334 26.5 38.001s24 19.167 39 25.5s30.833 9.5 47.5 9.5c17.333 0 34.166 -4 50.499 -12s36.166 -22.667 59.499 -44l-65 -64
c-15.333 14 -25.833 22.333 -31.5 25s-10.167 4 -13.5 4c-9.33301 0 -16.833 -2.83301 -22.5 -8.5s-8.5 -12.5 -8.5 -20.5c0 -7.33301 4 -15 12 -23l79 -79l-89 -88c7.33301 -18 19.166 -32.833 35.499 -44.5s35.166 -17.5 56.499 -17.5c14 0 26.833 2.5 38.5 7.5
s22 11.833 31 20.5s16 18.667 21 30s7.5 23.666 7.5 36.999v271h93v-271z" />
    <glyph glyph-name="roruathai" unicode="&#xe23;" horiz-adv-x="429" 
d="M391 156c0 -27.333 -5.16406 -51.1699 -15.4971 -71.5029s-24 -37.166 -41 -50.499s-36 -23.5 -57 -30.5s-41.833 -10.5 -62.5 -10.5c-20 0 -40 3 -60 9s-38.167 15.5 -54.5 28.5s-30.5 29.667 -42.5 50s-20 44.833 -24 73.5l90 30
c5.33301 -40 16.166 -66.833 32.499 -80.5s35.5 -20.5 57.5 -20.5c24 0 44 6.66699 60 20s24 31 24 53c0 10 -4 18.5 -12 25.5s-21 13.167 -39 18.5c-18 4.66699 -38.667 9.16699 -62 13.5s-45.5 10.833 -66.5 19.5s-38.833 20 -53.5 34s-22 33 -22 57
c0 22.667 5 42.667 15 60s23 31.5 39 42.5s33.667 19.333 53 25s38.333 8.5 57 8.5c17.333 0 34.833 -2 52.5 -6s34.667 -10.833 51 -20.5s31.333 -22.5 45 -38.5s25.167 -36 34.5 -60l-87 -32c-11.333 26.667 -24.833 44.667 -40.5 54s-33.834 14 -54.501 14
c-24 0 -42 -4.83301 -54 -14.5s-18 -20.167 -18 -31.5c0 -7.33301 4 -12.166 12 -14.499l29 -8.5c21.333 -5.33301 44.5 -10.666 69.5 -15.999s48.167 -13 69.5 -23s39.166 -23.333 53.499 -40s21.5 -39 21.5 -67z" />
    <glyph glyph-name="ruthai" unicode="&#xe24;" horiz-adv-x="486" 
d="M448 -171l-97 0.00195312l1 428c0 32 -11.5 58.333 -34.5 79s-53.5 31 -91.5 31c-16.667 0 -33 -3.5 -49 -10.5s-30 -16.167 -42 -27.5l24 -25v-214h64v-90h-161v272l-48 51c26 42 56.833 74.833 92.5 98.5s75.5 35.5 119.5 35.5c32 0 61.5 -5 88.5 -15
s50.5 -23.833 70.5 -41.5s35.5 -38.834 46.5 -63.501s16.5 -51.334 16.5 -80.001v-428z" />
    <glyph glyph-name="lolingthai" unicode="&#xe25;" horiz-adv-x="448" 
d="M317 0l0.00195312 125.998c0 26.667 -9.33301 47.167 -28 61.5s-41.334 21.5 -68.001 21.5c-24.667 0 -46.167 -7.16699 -64.5 -21.5s-27.5 -34.166 -27.5 -59.499c0 -11.333 3.33301 -22.666 10 -33.999s20.334 -25.333 41.001 -42l-66 -65
c-28 22.667 -47.833 45.5 -59.5 68.5s-17.5 47.167 -17.5 72.5c0 26 5 49.5 15 70.5s23.5 39 40.5 54s36.667 26.667 59 35s45.5 12.5 69.5 12.5c16.667 0 34.167 -2.5 52.5 -7.5s33.166 -11.833 44.499 -20.5v17c0.666992 24.667 -8.83301 43.5 -28.5 56.5
s-43.167 19.5 -70.5 19.5c-30 0 -52.667 -7 -68 -21s-25 -35 -29 -63h-92c2.66699 32 10 59.167 22 81.5s26.833 40.333 44.5 54s37.167 23.5 58.5 29.5s42.666 9 63.999 9c22 0 44.333 -3.5 67 -10.5s43.167 -17.5 61.5 -31.5s33.333 -31.833 45 -53.5
s17.5 -47.167 17.5 -76.5v-283h-93z" />
    <glyph glyph-name="luthai" unicode="&#xe26;" horiz-adv-x="493" 
d="M359 -171l0.00195312 428.002c0 32 -11.5 58.333 -34.5 79s-53.5 31 -91.5 31c-16.667 0 -32.834 -3.5 -48.501 -10.5s-29.834 -16.167 -42.501 -27.5l24 -25v-304h-139v90h42v182l-48 51c25.333 42 56 74.833 92 98.5s76 35.5 120 35.5c32 0 61.667 -5 89 -15
s50.833 -23.833 70.5 -41.5s35 -38.834 46 -63.501s16.5 -51.334 16.5 -80.001v-428h-96z" />
    <glyph glyph-name="wowaenthai" unicode="&#xe27;" horiz-adv-x="422" 
d="M393 225c0 -34 -5.33301 -65.1699 -16 -93.5029s-25.334 -52.666 -44.001 -72.999s-40.167 -36.333 -64.5 -48s-50.166 -17.5 -77.499 -17.5c-28.667 -0.666992 -57.5 5.5 -86.5 18.5s-57.5 34.5 -85.5 64.5l60 66c18.667 -20 37.5 -34.5 56.5 -43.5
s37.167 -13.5 54.5 -13.5c30.667 0.666992 56.5 13.5 77.5 38.5s31.5 58.833 31.5 101.5s-10.667 76.5 -32 101.5s-47.333 37.5 -78 37.5c-17.333 0 -35.333 -4.5 -54 -13.5s-37 -23.5 -55 -43.5l-60 66c26 28.667 53.167 49.667 81.5 63s56.5 20 84.5 20
c28 0.666992 54.5 -4.66602 79.5 -15.999s47 -27.166 66 -47.499s34 -44.833 45 -73.5s16.5 -60 16.5 -94z" />
    <glyph glyph-name="sosalathai" unicode="&#xe28;" horiz-adv-x="470" 
d="M391 384c27.333 -31.333 41 -68.665 41 -111.998v-272h-97v272c0 12.667 -2.66699 24.667 -8 36s-12.5 21.166 -21.5 29.499s-19.5 15 -31.5 20s-25 7.5 -39 7.5s-27.167 -2.5 -39.5 -7.5s-23 -11.667 -32 -20s-16 -18.166 -21 -29.499s-7.5 -23.333 -7.5 -36h99v-89h-99
v-183h-97v272c0 25.333 5.16699 49.166 15.5 71.499s24.5 41.666 42.5 57.999s38.833 29.333 62.5 39s49.167 14.5 76.5 14.5c28.667 0 55 -5 79 -15l55 59l71 -62z" />
    <glyph glyph-name="sorusithai" unicode="&#xe29;" horiz-adv-x="480" 
d="M442 216l-0.000976562 -24.999c0 -28 -5.33301 -54 -16 -78s-25 -44.833 -43 -62.5s-39.333 -31.5 -64 -41.5s-51 -15 -79 -15s-54.333 5 -79 15s-46 23.833 -64 41.5s-32.333 38.5 -43 62.5s-16 50 -16 78v259h97v-260c0 -30.667 9.5 -55.667 28.5 -75
s44.5 -29 76.5 -29s57.5 10 76.5 30s28.5 45 28.5 75v25h-60c-23.333 0 -42.666 7.66699 -57.999 23s-23 33.666 -23 54.999v53h90v-42h51v145h97v-145h37v-89h-37z" />
    <glyph glyph-name="sosuathai" unicode="&#xe2a;" horiz-adv-x="448" 
d="M383 375c18 -25.333 27.0029 -56.001 27.0029 -92.001v-283h-93v126c0 26.667 -9.33301 47.167 -28 61.5s-41.334 21.5 -68.001 21.5c-24.667 0 -46.167 -7 -64.5 -21s-27.5 -33.667 -27.5 -59c0 -11.333 3.33301 -22.666 10 -33.999s20.334 -25.333 41.001 -42l-66 -66
c-28 22.667 -47.833 45.5 -59.5 68.5s-17.5 47.5 -17.5 73.5s5 49.5 15 70.5s23.5 39 40.5 54s36.667 26.5 59 34.5s45.5 12 69.5 12c16.667 0 34.167 -2.16699 52.5 -6.5s33.166 -11.5 44.499 -21.5v17c0 25.333 -9.5 44.333 -28.5 57s-42.5 19 -70.5 19
c-30 0 -52.667 -7 -68 -21s-25 -35 -29 -63h-92c2.66699 32 10 59.167 22 81.5s26.833 40.333 44.5 54s37.167 23.5 58.5 29.5s42.666 9 63.999 9c15.333 0 30.666 -1.5 45.999 -4.5s30.333 -8.16699 45 -15.5l59 64l71 -62z" />
    <glyph glyph-name="hohipthai" unicode="&#xe2b;" horiz-adv-x="464" 
d="M354 341c22 -12.667 39.501 -29.668 52.501 -51.001s19.5 -45 19.5 -71v-219h-93v222c0 14 -5.33301 26.333 -16 37s-23.667 16 -39 16c-11.333 0 -25.333 -4.66699 -42 -14s-32.834 -19.666 -48.501 -30.999s-29 -21.833 -40 -31.5l-16.5 -14.5v-184h-93v450h93v-157
l240 169l56 -70z" />
    <glyph glyph-name="lochulathai" unicode="&#xe2c;" horiz-adv-x="545" 
d="M507 451c0 -24.667 -7 -45.999 -21 -63.999c14 -20 21 -43 21 -69v-191c0 -18.667 -3.66699 -36 -11 -52s-17.5 -30 -30.5 -42s-28 -21.333 -45 -28s-35.167 -10 -54.5 -10c-36 0 -67 11 -93 33c-26 -22 -57 -33 -93 -33c-19.333 0 -37.666 3.33301 -54.999 10
s-32.5 16 -45.5 28s-23.167 26 -30.5 42s-11 33.333 -11 52v323h97v-323c0 -11.333 4.16699 -21 12.5 -29s19.166 -12 32.499 -12c12.667 0 23.167 4 31.5 12s12.5 17.667 12.5 29v172h97v-172c0 -11.333 4.16699 -21 12.5 -29s19.166 -12 32.499 -12
c12.667 0 23.334 4 32.001 12s13 17.667 13 29v192c0 15.333 -2.83301 25.5 -8.5 30.5s-13.167 7.5 -22.5 7.5h-59v83h64c10.667 0 18 0.166992 22 0.5s6 4.16602 6 11.499v36h95z" />
    <glyph glyph-name="oangthai" unicode="&#xe2d;" horiz-adv-x="502" 
d="M473 226c0 -31.333 -5.17383 -60.999 -15.5068 -88.999s-25.166 -52.833 -44.499 -74.5s-42.666 -38.834 -69.999 -51.501s-57.666 -19 -90.999 -19s-63.666 6.16699 -90.999 18.5s-50.833 29.166 -70.5 50.499s-35 46.166 -46 74.499s-16.5 58.5 -16.5 90.5
c0 2 0.166992 4.33301 0.5 7s0.833008 9 1.5 19h239v-88h-135c9.33301 -24 24.333 -43.667 45 -59s45 -23 73 -23c18 0 34.833 3.66699 50.5 11s29.334 17.333 41.001 30s20.667 27.834 27 45.501s9.5 36.834 9.5 57.501c0 21.333 -3.16699 40.833 -9.5 58.5
s-15.166 33 -26.499 46s-24.833 23 -40.5 30s-32.834 10.5 -51.501 10.5c-25.333 0 -49.166 -7.5 -71.499 -22.5s-41.166 -39.5 -56.499 -73.5l-87 35c21.333 48 50.5 85.167 87.5 111.5s79.5 39.5 127.5 39.5c34.667 0 65.667 -6.5 93 -19.5s50.5 -30.333 69.5 -52
s33.5 -46.667 43.5 -75s15 -57.833 15 -88.5z" />
    <glyph glyph-name="honokhukthai" unicode="&#xe2e;" horiz-adv-x="502" 
d="M425 377c32 -43.333 47.9932 -93.667 47.9932 -151c0 -31.333 -5.16699 -61 -15.5 -89s-25.166 -52.833 -44.499 -74.5s-42.666 -38.834 -69.999 -51.501s-57.666 -19 -90.999 -19s-63.666 6.16699 -90.999 18.5s-50.833 29.166 -70.5 50.499s-35 46.166 -46 74.499
s-16.5 58.5 -16.5 90.5c0 2 0.166992 4.33301 0.5 7s0.833008 9 1.5 19h239v-88h-135c9.33301 -24 24.333 -43.667 45 -59s45 -23 73 -23c18 0 34.833 3.66699 50.5 11s29.334 17.333 41.001 30s20.667 27.834 27 45.501s9.5 36.834 9.5 57.501
c0 21.333 -3.16699 40.833 -9.5 58.5s-15.166 32.834 -26.499 45.501s-24.833 22.5 -40.5 29.5s-32.834 10.5 -51.501 10.5c-25.333 0 -49.166 -7.33301 -71.499 -22s-41.166 -39 -56.499 -73l-87 35c22 48.667 51.333 86 88 112s79 39 127 39c38 0 71.667 -7.66699 101 -23
l62 67l72 -61z" />
    <glyph glyph-name="paiyannoithai" unicode="&#xe2f;" horiz-adv-x="426" 
d="M291 0l-0.00292969 280c-22.667 -19.333 -50.667 -29 -84 -29c-25.333 0 -48.833 4.5 -70.5 13.5s-40.667 22.167 -57 39.5s-29.166 38.333 -38.499 63s-14 52.667 -14 84h96c0 -38.667 8.33301 -66.667 25 -84s36.334 -26 59.001 -26s42.334 8.66699 59.001 26
s25 45.333 25 84h96v-451h-96z" />
    <glyph glyph-name="saraathai" unicode="&#xe30;" horiz-adv-x="245" 
d="M116 268c-24 0 -44.167 8 -60.5 24s-24.5 35.333 -24.5 58v49h93v-43h87v-88h-95zM116 40c-24 0 -44.167 8 -60.5 24s-24.5 35.333 -24.5 58v48h93v-42h87v-88h-95z" />
    <glyph glyph-name="maihanakatthai" unicode="&#xe31;" 
d="M-236 510c-24 0 -44.167 8.5 -60.5 25.5s-24.5 36.833 -24.5 59.5v56h84v-56h237v-85h-236z" />
    <glyph glyph-name="saraaathai" unicode="&#xe32;" horiz-adv-x="371" 
d="M333 0h-97.002v281c0 58 -28 87 -84 87c-14 0 -27.667 -2.83301 -41 -8.5s-29.333 -17.5 -48 -35.5l-65 65c28 27.333 54 45.333 78 54s49.667 13 77 13c30.667 0 57.334 -4.5 80.001 -13.5s41.334 -21.333 56.001 -37s25.667 -33.667 33 -54s11 -41.5 11 -63.5v-288z
" />
    <glyph glyph-name="saraamthai" unicode="&#xe33;" horiz-adv-x="371" 
d="M5 597c0 -24.667 -8.66699 -45.667 -26 -63s-38.333 -26 -63 -26s-45.667 8.66699 -63 26s-26 38.333 -26 63s8.66699 45.667 26 63s38.333 26 63 26s45.667 -8.66699 63 -26s26 -38.333 26 -63zM333 0h-97.002v281c0 58 -28 87 -84 87c-14 0 -27.667 -2.83301 -41 -8.5
s-29.333 -17.5 -48 -35.5l-65 65c28 27.333 54 45.333 78 54s49.667 13 77 13c30.667 0 57.334 -4.5 80.001 -13.5s41.334 -21.333 56.001 -37s25.667 -33.667 33 -54s11 -41.5 11 -63.5v-288zM-58.002 596c0 7.33301 -2.5 13.666 -7.5 18.999s-11.167 8 -18.5 8
s-13.666 -2.66699 -18.999 -8s-8 -11.666 -8 -18.999s2.66699 -13.5 8 -18.5s11.666 -7.5 18.999 -7.5s13.5 2.5 18.5 7.5s7.5 11.167 7.5 18.5z" />
    <glyph glyph-name="saraithai" unicode="&#xe34;" 
d="M-426 510v85h388v-85h-388z" />
    <glyph glyph-name="saraiithai" unicode="&#xe35;" 
d="M-426 510v85h303v60h85v-145h-388z" />
    <glyph glyph-name="sarauethai" unicode="&#xe36;" 
d="M-31 583c0 -20 -7.16602 -37.166 -21.499 -51.499s-31.166 -21.5 -50.499 -21.5h-323v85h251c3.33301 17.333 11.666 31.666 24.999 42.999s28.666 17 45.999 17c20 0 37.167 -7 51.5 -21s21.5 -31 21.5 -51zM-79.999 582.001c0 6.66699 -2.33301 12.334 -7 17.001
s-10.334 7 -17.001 7s-12.334 -2.33301 -17.001 -7s-7 -10.334 -7 -17.001s2.33301 -12.334 7 -17.001s10.334 -7 17.001 -7s12.334 2.33301 17.001 7s7 10.334 7 17.001z" />
    <glyph glyph-name="saraueethai" unicode="&#xe37;" 
d="M-426 510v85h187v60h80v-60h40v60h81v-145h-388z" />
    <glyph glyph-name="sarauthai" unicode="&#xe38;" 
d="M-129 -216v80h-40v92h82c13.333 0 24.833 -4.83301 34.5 -14.5s14.5 -21.167 14.5 -34.5v-123h-91z" />
    <glyph glyph-name="sarauuthai" unicode="&#xe39;" 
d="M-38 -128c0 -30 -10.3311 -54.335 -30.998 -73.002s-46 -28 -76 -28c-14 0 -27.667 1.83301 -41 5.5s-25.5 9.33398 -36.5 17.001s-19.833 17.334 -26.5 29.001s-10 25.5 -10 41.5h-40v91h129v-85c0 -6 2.16699 -10.667 6.5 -14s9.16602 -5 14.499 -5
s10.166 1.66699 14.499 5s6.5 8 6.5 14v85h90v-84v1z" />
    <glyph glyph-name="phinthuthai" unicode="&#xe3a;" 
d="M-28 -81c0 -16 -5.66699 -29.667 -17 -41s-24.666 -17 -39.999 -17c-16 0 -29.667 5.66699 -41 17s-17 25 -17 41s5.66699 29.667 17 41s24.666 17 39.999 17c16 0 29.667 -5.66699 41 -17s17 -25 17 -41z" />
    <glyph glyph-name="PUCR2005" unicode="&#xe3e;" 
 />
    <glyph glyph-name="bahtthai" unicode="&#xe3f;" horiz-adv-x="417" 
d="M397 159c0 -25.333 -4.33301 -47.5 -13 -66.5s-20.334 -35 -35.001 -48s-31.667 -23.167 -51 -30.5s-39.666 -12 -60.999 -14v-81h-77v80h-123v529h123v77h77v-81c36 -7.33301 64.5 -23 85.5 -47s31.5 -58 31.5 -102c0 -34.667 -10 -64 -30 -88
c23.333 -13.333 41.333 -31 54 -53s19 -47 19 -75zM270 379c0 16 -2.83203 28.333 -8.49902 37s-13.834 15.334 -24.501 20.001v-115c10 4.66699 18 11.167 24 19.5s9 21.166 9 38.499zM160.001 446h-39v-133h39v133zM313.001 158c0 25.333 -7.33301 42.832 -22 52.499
s-32.667 15.834 -54 18.501v-144c23.333 3.33301 41.833 10.5 55.5 21.5s20.5 28.167 20.5 51.5zM160.001 229.999h-39v-147h39v147z" />
    <glyph glyph-name="saraethai" unicode="&#xe40;" horiz-adv-x="203" 
d="M53 0v450h97v-450h-97z" />
    <glyph glyph-name="saraaethai" unicode="&#xe41;" horiz-adv-x="376" 
d="M226 0v450h97v-450h-97zM53 0v450h97v-450h-97z" />
    <glyph glyph-name="saraothai" unicode="&#xe42;" horiz-adv-x="184" 
d="M77 561c16.667 -9.33301 31.3311 -21.3359 43.998 -36.0029s19 -33.667 19 -57v-468h-98v469c0 7.33301 -3.83301 13.5 -11.5 18.5s-16 10.833 -25 17.5s-17.333 14.834 -25 24.501s-11.5 23.167 -11.5 40.5s3.66699 31.333 11 42s16.333 18.834 27 24.501
s21.834 9.33398 33.501 11.001s21.834 2.5 30.501 2.5h139v-89h-133z" />
    <glyph glyph-name="saraaimaimuanthai" unicode="&#xe43;" horiz-adv-x="184" 
d="M204 535c0 -12.667 -1.66797 -24.166 -5.00098 -34.499s-8 -19.833 -14 -28.5s-12.833 -17 -20.5 -25s-15.834 -16 -24.501 -24v-423h-97v451c4 4 9.83301 9.5 17.5 16.5s15.334 14.5 23.001 22.5s14.167 16 19.5 24s8 15 8 21c0 21.333 -11 32 -33 32
c-9.33301 0 -17.5 -4.16699 -24.5 -12.5s-10.5 -23.833 -10.5 -46.5h-94c0 24 3.33301 45.167 10 63.5s15.834 33.833 27.501 46.5s25.334 22.167 41.001 28.5s32.167 9.5 49.5 9.5c18 0 34.833 -3.16699 50.5 -9.5s29.167 -15 40.5 -26s20.166 -23.833 26.499 -38.5
s9.5 -30.334 9.5 -47.001z" />
    <glyph glyph-name="saraaimaimalaithai" unicode="&#xe44;" horiz-adv-x="184" 
d="M212 570c0 -14.667 -3.83496 -27 -11.502 -37s-16 -18.5 -25 -25.5l-24.5 -19.5c-7.33301 -6 -11 -12.333 -11 -19v-469h-97v468c0 23.333 6.16699 42.333 18.5 57s26.833 26.667 43.5 36h-133v89h139c8.66699 0 18.834 -1.16699 30.501 -3.5s22.834 -6.5 33.501 -12.5
s19.5 -14.167 26.5 -24.5s10.5 -23.5 10.5 -39.5z" />
    <glyph glyph-name="lakkhangyaothai" unicode="&#xe45;" horiz-adv-x="371" 
d="M333 -171h-97.002v452c0 58 -28 87 -84 87c-14 0 -27.667 -2.83301 -41 -8.5s-29.333 -17.5 -48 -35.5l-65 65c28 27.333 54 45.333 78 54s49.667 13 77 13c30.667 0 57.334 -4.5 80.001 -13.5s41.334 -21.333 56.001 -37s25.667 -33.667 33 -54s11 -41.5 11 -63.5v-459z
" />
    <glyph glyph-name="maiyamokthai" unicode="&#xe46;" horiz-adv-x="475" 
d="M341 -171l-0.000976562 442.999c0 29.333 -12 53.666 -36 72.999l-69 -65l-69 65c-24 -20 -36 -44.667 -36 -74c0 -11.333 2.66699 -22.833 8 -34.5s16.333 -26.167 33 -43.5l-68 -65c-25.333 25.333 -43.166 49.5 -53.499 72.5s-15.5 46.5 -15.5 70.5
c0 40.667 13 77.334 39 110.001s63 57.667 111 75l51 -49l51 49c48 -17.333 85 -42.166 111 -74.499s39 -68.833 39 -109.5v-443h-96z" />
    <glyph glyph-name="maitaikhuthai" unicode="&#xe47;" 
d="M-298 665c-8.66699 0 -14.9971 -4.66602 -18.9971 -13.999s-6 -19 -6 -29c0 -10.667 2.33301 -19.667 7 -27s10.334 -11 17.001 -11c6 0 11.167 3.5 15.5 10.5s6.5 17.5 6.5 31.5h81c0 -13.333 2.16699 -23.833 6.5 -31.5s9.83301 -11.5 16.5 -11.5
c14.667 0 22 14.333 22 43h82c0 -22 -2.83301 -40.667 -8.5 -56s-13.334 -28 -23.001 -38s-20.834 -17.333 -33.501 -22s-25.667 -7 -39 -7c-12.667 0 -23.834 2 -33.501 6s-19.167 9.66699 -28.5 17c-19.333 -15.333 -40.333 -23 -63 -23c-32 0 -58.333 10.833 -79 32.5
s-31 50.5 -31 86.5c0 18 2.5 34.5 7.5 49.5s12.333 28.167 22 39.5s21.167 20.166 34.5 26.499s28.666 9.5 45.999 9.5h260v-82h-260z" />
    <glyph glyph-name="maiekthai" unicode="&#xe48;" 
d="M-123 703v146h85v-146h-85z" />
    <glyph glyph-name="maithothai" unicode="&#xe49;" 
d="M-269 703l18.001 31.499c6.66699 11.667 12 22.167 16 31.5c2.66699 4.66699 3.66699 10.334 3 17.001s-4.66699 10 -12 10c-6.66699 0 -11 -2 -13 -6l-46 46c17.333 17.333 38.333 26 63 26c21.333 0 40.166 -6.83301 56.499 -20.5s24.5 -32.167 24.5 -55.5
c0 -5.33301 -0.333008 -9 -1 -11l9 1h151v-70h-269z" />
    <glyph glyph-name="maitrithai" unicode="&#xe4a;" 
d="M-141 703c4 5.33301 7.50195 10.5 10.502 15.5s6.16699 9.83301 9.5 14.5c3.33301 6 6.16602 11.5 8.49902 16.5s4.16602 9.16699 5.49902 12.5c1.33301 4.66699 1.33301 10.167 0 16.5s-6 9.5 -14 9.5c-7.33301 0 -12.166 -2 -14.499 -6s-3.83301 -11 -4.5 -21h-48
c-0.666992 5.33301 -2.16699 11 -4.5 17s-6.16602 9 -11.499 9c-12 0 -18 -5.33301 -18 -16c0 -5.33301 2 -10.333 6 -15s8.33301 -8.66699 13 -12l2 -1l-46 -44c-15.333 8.66699 -27.5 19 -36.5 31s-13.5 25.333 -13.5 40c0 24 8.33301 43.667 25 59s36.667 23 60 23
c17.333 0 33.333 -6.33301 48 -19c7.33301 6.66699 15.333 11.5 24 14.5s16.667 4.5 24 4.5c21.333 0 40.166 -7.33301 56.499 -22s25.166 -34.667 26.499 -60l8 1l66 -1v-67h-182z" />
    <glyph glyph-name="maichattawathai" unicode="&#xe4b;" 
d="M-38 747v-44h-86v43h-45v77h45v44h86v-43h45v-77h-45z" />
    <glyph glyph-name="thanthakhatthai" unicode="&#xe4c;" 
d="M-101 728c-4.66699 0 -7.83301 -1.33301 -9.5 -4s-0.5 -5.66699 3.5 -9l21 -19l-56 -56c-18 16 -30.5 31.167 -37.5 45.5s-10.5 28.833 -10.5 43.5c0 24.667 7.66699 44 23 58s35.333 21 60 21h98v-80h-92z" />
    <glyph glyph-name="nikhahitthai" unicode="&#xe4d;" 
d="M5 597c0 -24.667 -8.66699 -45.667 -26 -63s-38.333 -26 -63 -26s-45.667 8.66699 -63 26s-26 38.333 -26 63s8.66699 45.667 26 63s38.333 26 63 26s45.667 -8.66699 63 -26s26 -38.333 26 -63zM-58 596c0 7.33301 -2.5 13.666 -7.5 18.999s-11.167 8 -18.5 8
s-13.666 -2.66699 -18.999 -8s-8 -11.666 -8 -18.999s2.66699 -13.5 8 -18.5s11.666 -7.5 18.999 -7.5s13.5 2.5 18.5 7.5s7.5 11.167 7.5 18.5z" />
    <glyph glyph-name="yamakkanthai" unicode="&#xe4e;" 
d="M-63 668c-8 7.33301 -13.832 12.0029 -17.499 14.0029s-7.16699 3 -10.5 3c-7.33301 0 -13.333 -2.33301 -18 -7s-7 -10.334 -7 -17.001c0 -6 3 -11.667 9 -17s17.333 -8 34 -8v-59c-16.667 0 -28 -2.5 -34 -7.5s-9 -10.833 -9 -17.5c0 -6 3 -11.5 9 -16.5
s17.333 -7.5 34 -7.5v-60c-32 0 -57 8.16699 -75 24.5s-27 36.166 -27 59.499c0 20.667 6.66699 38.667 20 54c-13.333 15.333 -20 33.666 -20 54.999c0 23.333 8.16699 43 24.5 59s36.166 24 59.499 24c12 0 23.5 -2.5 34.5 -7.5s23.167 -14.167 36.5 -27.5z" />
    <glyph glyph-name="fongmanthai" unicode="&#xe4f;" horiz-adv-x="562" 
d="M524 237c0 -33.333 -6.5 -64.833 -19.5 -94.5s-30.5 -55.5 -52.5 -77.5s-47.833 -39.5 -77.5 -52.5s-61.167 -19.5 -94.5 -19.5s-64.833 6.5 -94.5 19.5s-55.5 30.5 -77.5 52.5s-39.5 47.833 -52.5 77.5s-19.5 61.167 -19.5 94.5s6.5 64.833 19.5 94.5
s30.5 55.5 52.5 77.5s47.833 39.5 77.5 52.5s61.167 19.5 94.5 19.5s64.833 -6.5 94.5 -19.5s55.5 -30.5 77.5 -52.5s39.5 -47.833 52.5 -77.5s19.5 -61.167 19.5 -94.5zM403 237c0 -17.333 -3.16699 -33.333 -9.5 -48s-15.166 -27.667 -26.499 -39
s-24.5 -20.166 -39.5 -26.499s-30.833 -9.5 -47.5 -9.5c-17.333 0 -33.333 3.16699 -48 9.5s-27.667 15.166 -39 26.499s-20.166 24.333 -26.499 39s-9.5 30.667 -9.5 48c0 16.667 3.16699 32.5 9.5 47.5s15.166 28.167 26.499 39.5s24.333 20.166 39 26.499
s30.667 9.5 48 9.5c16.667 0 32.5 -3.16699 47.5 -9.5s28.167 -15.166 39.5 -26.499s20.166 -24.5 26.499 -39.5s9.5 -30.833 9.5 -47.5zM456 233c0 24.667 -4.66699 47.833 -14 69.5s-22 40.667 -38 57s-34.667 29.333 -56 39s-44 14.5 -68 14.5s-46.667 -4.66699 -68 -14
s-40 -22 -56 -38s-28.667 -34.667 -38 -56s-14 -44 -14 -68s4.66699 -46.667 14 -68s22 -40 38 -56s34.667 -28.667 56 -38s44 -14 68 -14s46.667 4.66699 68 14s39.833 22 55.5 38s28.167 34.667 37.5 56s14 44 14 68zM337 236.999c0 15.333 -5.66699 28.666 -17 39.999
s-24.666 17 -39.999 17s-28.666 -5.66699 -39.999 -17s-17 -24.666 -17 -39.999s5.66699 -28.666 17 -39.999s24.666 -17 39.999 -17s28.666 5.66699 39.999 17s17 24.666 17 39.999z" />
    <glyph glyph-name="zerothai" unicode="&#xe50;" horiz-adv-x="462" 
d="M447 202c0 -29.333 -5.66699 -56.666 -17 -81.999s-26.833 -47.5 -46.5 -66.5s-42.5 -34 -68.5 -45s-53.667 -16.5 -83 -16.5s-57.166 5.5 -83.499 16.5s-49.166 26 -68.499 45s-34.666 41.167 -45.999 66.5s-17 52.666 -17 81.999c0 28.667 5.66699 55.834 17 81.501
s26.666 48 45.999 67s42.166 34 68.499 45s54.166 16.5 83.499 16.5s57 -5.5 83 -16.5s48.833 -26 68.5 -45s35.167 -41.333 46.5 -67s17 -52.834 17 -81.501zM359 202c0 16.667 -3.33301 32.667 -10 48s-15.834 28.5 -27.501 39.5s-25.167 19.833 -40.5 26.5
s-31.666 10 -48.999 10s-33.833 -3.33301 -49.5 -10s-29.167 -15.5 -40.5 -26.5s-20.333 -24.167 -27 -39.5s-10 -31.333 -10 -48c0 -17.333 3.33301 -33.5 10 -48.5s15.667 -28 27 -39s24.833 -19.833 40.5 -26.5s32.167 -10 49.5 -10s33.666 3.33301 48.999 10
s28.833 15.5 40.5 26.5s20.834 24 27.501 39s10 31.167 10 48.5z" />
    <glyph glyph-name="onethai" unicode="&#xe51;" horiz-adv-x="462" 
d="M441 201c0 -29.333 -5.66797 -56.667 -17.001 -82s-26.666 -47.5 -45.999 -66.5s-42 -34 -68 -45s-53.667 -16.5 -83 -16.5c-30 0 -58.833 6.16699 -86.5 18.5s-56.5 33.5 -86.5 63.5l62 61c22 -21.333 41.667 -36.166 59 -44.499s34.666 -12.5 51.999 -12.5
s33.666 3.33301 48.999 10s28.833 15.5 40.5 26.5s20.834 24 27.501 39s10 31.167 10 48.5c0 16.667 -3.33301 32.667 -10 48s-15.834 28.666 -27.501 39.999s-25.167 20.333 -40.5 27s-31.666 10 -48.999 10c-26.667 0 -50.167 -6.5 -70.5 -19.5
s-35.166 -29.167 -44.499 -48.5c-4 -8.66699 -3.33301 -13 2 -13h77v-86h-80c-23.333 0 -41.5 5 -54.5 15s-22.167 22.167 -27.5 36.5s-7.16602 29.5 -5.49902 45.5s5.5 30 11.5 42c16.667 34 42.167 61.5 76.5 82.5s72.833 31.5 115.5 31.5c29.333 0 57 -5.5 83 -16.5
s48.667 -26 68 -45s34.666 -41.333 45.999 -67s17 -53.167 17 -82.5z" />
    <glyph glyph-name="twothai" unicode="&#xe52;" horiz-adv-x="520" 
d="M497 221c0 -34.667 -5.66602 -65.832 -16.999 -93.499s-27 -51.334 -47 -71.001s-44.167 -34.834 -72.5 -45.501s-59.5 -16 -93.5 -16c-35.333 0 -67.166 5.83301 -95.499 17.5s-52.5 27.5 -72.5 47.5s-35.333 43.5 -46 70.5s-16 56.167 -16 87.5v274h87v-273
c0 -40 12.167 -73.167 36.5 -99.5s59.833 -39.5 106.5 -39.5c44 0 78.833 12.333 104.5 37s38.5 59.334 38.5 104.001v27c0 12 -0.833008 24 -2.5 36s-4.66699 22.5 -9 31.5s-10.5 13.5 -18.5 13.5c-7.33301 0 -13.333 -2.33301 -18 -7s-7 -10.334 -7 -17.001v-46h-83v46
c0 6 -2.5 11.5 -7.5 16.5s-12.167 7.5 -21.5 7.5c-18.667 0 -28 -10.333 -28 -31c0 -3.33301 1.66699 -9.16602 5 -17.499s15 -18.833 35 -31.5l-58 -57c-26 18 -43.667 35.833 -53 53.5s-14 35.167 -14 52.5c0 14 2.5 27.833 7.5 41.5s12.167 26 21.5 37
s21.166 20 35.499 27s30.5 10.5 48.5 10.5c26.667 0 49.667 -8.33301 69 -25c20.667 16.667 44.667 25 72 25c26 0 46.667 -6.83301 62 -20.5s26.666 -30.5 33.999 -50.5s12 -41.167 14 -63.5s3 -41.833 3 -58.5z" />
    <glyph glyph-name="threethai" unicode="&#xe53;" horiz-adv-x="529" 
d="M510 210c0 -50 -14 -94.666 -42 -133.999s-70.333 -70 -127 -92l-41 77c44 16.667 75.667 37.667 95 63s29 54 29 86c0 22 -5.16699 42.333 -15.5 61s-24.166 34 -41.499 46l-97 -97l-101 101c-21.333 -13.333 -37.166 -31 -47.499 -53s-15.5 -45 -15.5 -69
c0 -17.333 2.33301 -33.333 7 -48s11.334 -27.5 20.001 -38.5s19 -19.667 31 -26s25.333 -9.5 40 -9.5c3.33301 0 7.66602 0.333008 12.999 1s12.666 4 21.999 10l34 -75c-15.333 -9.33301 -28.5 -15.166 -39.5 -17.499s-21.167 -3.16602 -30.5 -2.49902
c-30.667 0.666992 -57.334 7.16699 -80.001 19.5s-41.667 28.166 -57 47.499s-26.833 41.166 -34.5 65.499s-11.5 49.166 -11.5 74.499c0 22 3 44 9 66s15.667 42.833 29 62.5s30.666 37.5 51.999 53.5s47 29 77 39l83 -82l81 80c50.667 -18.667 89.834 -46.5 117.501 -83.5
s41.5 -78.833 41.5 -125.5z" />
    <glyph glyph-name="fourthai" unicode="&#xe54;" horiz-adv-x="490" 
d="M454 356c-6 -8 -14.1689 -14.835 -24.502 -20.502s-22.166 -8.5 -35.499 -8.5h-159c-18 0 -34.667 -3.33301 -50 -10s-28.833 -15.5 -40.5 -26.5s-20.834 -24.167 -27.501 -39.5s-10 -31.333 -10 -48c0 -17.333 3.33301 -33.5 10 -48.5s15.834 -28.167 27.501 -39.5
s25.167 -20.333 40.5 -27s32 -10 50 -10c20 0 40.333 4.66699 61 14l-41 41c-8 8 -15.167 16.5 -21.5 25.5s-10.666 18.5 -12.999 28.5s-2 20.333 1 31s9.83301 21.334 20.5 32.001l38 39l63 -62l-30 -29l159 -158l-61 -60l-51 49c-18 -11.333 -37.667 -20.333 -59 -27
s-43.333 -10 -66 -10c-30 0 -58 5.5 -84 16.5s-48.667 26 -68 45s-34.666 41.333 -45.999 67s-17 53.167 -17 82.5c0 28.667 5.66699 55.834 17 81.501s26.666 48 45.999 67s42 34 68 45s54 16.5 84 16.5h154l62 81l72 -49z" />
    <glyph glyph-name="fivethai" unicode="&#xe55;" horiz-adv-x="490" 
d="M454 356c-6 -8 -14.1689 -14.832 -24.502 -20.499s-22.166 -8.5 -35.499 -8.5h-159c-18 0 -34.667 -3.33301 -50 -10s-28.833 -15.5 -40.5 -26.5s-20.834 -24.167 -27.501 -39.5s-10 -31.333 -10 -48c0 -17.333 3.33301 -33.5 10 -48.5s15.834 -28.167 27.501 -39.5
s25.167 -20.333 40.5 -27s32 -10 50 -10c20 0 40.333 4.66699 61 14l-41 41c-8 8 -15.167 16.5 -21.5 25.5s-10.666 18.5 -12.999 28.5s-2 20.333 1 31s9.83301 21.334 20.5 32.001l38 39l63 -62l-30 -29l159 -158l-61 -60l-51 49c-18 -11.333 -37.667 -20.333 -59 -27
s-43.333 -10 -66 -10c-30 0 -58 5.5 -84 16.5s-48.667 26 -68 45s-34.666 41.333 -45.999 67s-17 53.167 -17 82.5c0 23.333 3.66699 45.666 11 66.999s17.666 40.666 30.999 57.999s29.166 32.5 47.499 45.5s38.166 22.833 59.499 29.5c-0.666992 2 -1 6 -1 12
c0 26.667 9.33301 49.334 28 68.001s41.334 28 68.001 28s49.334 -9.33301 68.001 -28s28 -41.334 28 -68.001v-2h29l62 81l72 -49zM296.998 416.001c0 9.33301 -3.16699 17.166 -9.5 23.499s-14.166 9.5 -23.499 9.5s-17.166 -3.16699 -23.499 -9.5
s-9.5 -14.166 -9.5 -23.499s3.16699 -17.166 9.5 -23.499s14.166 -9.5 23.499 -9.5s17.166 3.16699 23.499 9.5s9.5 14.166 9.5 23.499z" />
    <glyph glyph-name="sixthai" unicode="&#xe56;" horiz-adv-x="455" 
d="M437 207c0 -29.333 -5.66797 -56.8311 -17.001 -82.498s-26.666 -48.167 -45.999 -67.5s-42 -34.666 -68 -45.999s-53.667 -17 -83 -17c-38 0 -71.833 8.5 -101.5 25.5s-53.167 37.833 -70.5 62.5c-14 19.333 -21.667 36.666 -23 51.999s1.66699 29.666 9 42.999
s17.5 26.166 30.5 38.499l40.5 39.5l60 -60c-3.33301 -3.33301 -8.16602 -7.5 -14.499 -12.5s-12.5 -10.5 -18.5 -16.5s-10.833 -12 -14.5 -18s-3.83398 -11 -0.500977 -15c10.667 -15.333 25.167 -28 43.5 -38s38.166 -15 59.499 -15c17.333 0 33.666 3.33301 48.999 10
s28.833 15.834 40.5 27.501s20.834 25.167 27.501 40.5s10 31.666 10 48.999c0 22.667 -5.66699 43.5 -17 62.5s-26.666 34.167 -45.999 45.5l-89 -89l-177 176l62 60l115 -115l68 68c26.667 -7.33301 50.5 -17.833 71.5 -31.5s38.833 -29.5 53.5 -47.5s26 -38 34 -60
s12 -45 12 -69z" />
    <glyph glyph-name="seventhai" unicode="&#xe57;" horiz-adv-x="535" 
d="M511 210c0 -50 -14.1641 -94.668 -42.4971 -134.001s-70.833 -70 -127.5 -92l-41 77c44 16.667 75.667 37.667 95 63s29 54 29 86c0 21.333 -5 41.333 -15 60s-24 34.334 -42 47.001l-97 -97l-101 101c-21.333 -13.333 -37.333 -31 -48 -53s-16 -45 -16 -69
c0.666992 -34 9.83398 -62.5 27.501 -85.5s41.5 -35.167 71.5 -36.5c3.33301 0 7.66602 0.5 12.999 1.5s12.666 4.5 21.999 10.5l34 -76c-15.333 -9.33301 -28.5 -15 -39.5 -17s-21.167 -3 -30.5 -3c-30.667 0.666992 -57.5 7.16699 -80.5 19.5s-42.167 28.333 -57.5 48
s-26.833 41.667 -34.5 66s-11.5 48.833 -11.5 73.5c0 22 3 44 9 66s15.667 43 29 63s30.666 38 51.999 54s47.333 29 78 39l83 -83l81 81c15.333 -5.33301 28.666 -11.333 39.999 -18s22.333 -14.667 33 -24v113h87v-281z" />
    <glyph glyph-name="eightthai" unicode="&#xe58;" horiz-adv-x="538" 
d="M493 358c-6 -8 -14.1699 -14.832 -24.5029 -20.499s-22.166 -8.5 -35.499 -8.5h-193c-18.667 0 -36.167 -3.33301 -52.5 -10s-30.5 -16 -42.5 -28s-21.5 -25.833 -28.5 -41.5s-10.5 -32.5 -10.5 -50.5c0 -23.333 5.66699 -44.833 17 -64.5s26.666 -35.167 45.999 -46.5
l101 99l106 -105c15.333 4 28 12.167 38 24.5s15 26.5 15 42.5c0 18 -7.66699 34 -23 48s-41 21 -77 21v86c28.667 0 54.5 -4 77.5 -12s42.667 -19 59 -33s28.833 -30.333 37.5 -49s13 -39 13 -61s-4.16699 -42.333 -12.5 -61s-20 -35 -35 -49s-33 -25 -54 -33
s-43.833 -12 -68.5 -12l-76 74l-83 -81c-52 17.333 -93 44.833 -123 82.5s-45 80.834 -45 129.501c0 30 5.83301 58.167 17.5 84.5s27.5 49.166 47.5 68.499s43.333 34.666 70 45.999s55.334 17 86.001 17h180c4.66699 0 7.33398 0.333008 8.00098 1
s2.33398 2.66699 5.00098 6l57 74l72 -48z" />
    <glyph glyph-name="ninethai" unicode="&#xe59;" horiz-adv-x="552" 
d="M569 451l-14.4971 -22.998l-11.5 -18l-18 -26.5c-6.66699 -9.66699 -13.834 -18.5 -21.501 -26.5s-16.167 -14.833 -25.5 -20.5s-19.333 -8.83398 -30 -9.50098c-11.333 -0.666992 -20.333 -0.666992 -27 0s-12.834 0.5 -18.501 -0.5s-11.334 -3.33301 -17.001 -7
s-12.5 -10.167 -20.5 -19.5l176 -272l-73 -44l-216 334c-1.33301 2.66699 -4.5 5 -9.5 7s-10.833 3 -17.5 3c-16 0 -31.167 -3 -45.5 -9s-26.666 -14.5 -36.999 -25.5s-18.666 -24.167 -24.999 -39.5s-9.5 -32.333 -9.5 -51c0 -17.333 3.33301 -33.5 10 -48.5
s15.667 -28 27 -39s24.666 -19.833 39.999 -26.5s32 -10 50 -10c8.66699 0 18.167 1.16699 28.5 3.5s25.833 8.16602 46.5 17.499l39 -77c-27.333 -11.333 -49.333 -19.166 -66 -23.499s-32.667 -6.5 -48 -6.5c-29.333 0 -57.166 5.5 -83.499 16.5s-49.166 26 -68.499 45
s-34.666 41.167 -45.999 66.5s-17 52.666 -17 81.999c0 30 5.16699 57.833 15.5 83.5s24.666 48 42.999 67s40 33.833 65 44.5s52.167 16 81.5 16c17.333 0 34.166 -3.66699 50.499 -11s30.166 -17.666 41.499 -30.999c10.667 10.667 20.667 18.667 30 24
s18.666 9.16602 27.999 11.499s19.333 3.5 30 3.5h36c4 0 8.83301 3.83301 14.5 11.5s11.5 16.167 17.5 25.5s11.333 18.5 16 27.5s7.66699 14.5 9 16.5z" />
    <glyph glyph-name="angkhankhuthai" unicode="&#xe5a;" horiz-adv-x="598" 
d="M291 0l-0.00292969 280c-22.667 -19.333 -50.667 -29 -84 -29c-25.333 0 -48.833 4.5 -70.5 13.5s-40.667 22.167 -57 39.5s-29.166 38.333 -38.499 63s-14 52.667 -14 84h96c0 -38.667 8.33301 -66.667 25 -84s36.334 -26 59.001 -26s42.334 8.66699 59.001 26
s25 45.333 25 84h96v-451h-96zM558.997 451v-451h-96v451h96z" />
    <glyph glyph-name="khomutthai" unicode="&#xe5b;" horiz-adv-x="1006" 
d="M779 187c-5.33301 -7.33301 -10.1748 -14.332 -14.5078 -20.999l-12.5 -20l-22 -34c-7.33301 -11.333 -13.666 -19.666 -18.999 -24.999c-2.66699 8 -6.66699 17.5 -12 28.5s-11.166 22.167 -17.499 33.5l-18.5 33l-15 27l-19.5 -35c-7.66699 -14 -16 -28.167 -25 -42.5
s-18 -27.833 -27 -40.5s-16.833 -22.334 -23.5 -29.001c-4 8.66699 -9.16699 19.167 -15.5 31.5l-20 37.5l-21 37c-7 12 -13.5 22.333 -19.5 31c-6 -22.667 -15.833 -44.334 -29.5 -65.001s-30 -39 -49 -55s-40.5 -28.667 -64.5 -38s-49.333 -14 -76 -14
c-35.333 0 -66.833 4.83301 -94.5 14.5s-51 23.5 -70 41.5s-33.667 39.5 -44 64.5s-15.5 52.5 -15.5 82.5c0 30.667 5 57.667 15 81s23 43 39 59s34.167 28 54.5 36s40.833 12 61.5 12c19.333 0 38 -3.33301 56 -10s33.5 -16.667 46.5 -30s22.667 -30.333 29 -51
s7.5 -45.334 3.5 -74.001l-84 -7c5.33301 32 2.16602 54.5 -9.50098 67.5s-26.167 19.5 -43.5 19.5c-9.33301 0 -18.666 -1.83301 -27.999 -5.5s-17.833 -9.66699 -25.5 -18s-14 -19 -19 -32s-7.5 -28.833 -7.5 -47.5c0 -21.333 3.5 -39.5 10.5 -54.5
s16.667 -27.167 29 -36.5s26.666 -16.333 42.999 -21s33.833 -7 52.5 -7c24.667 0 47.334 6.83301 68.001 20.5s37.334 31 50.001 52s20.5 44.333 23.5 70s-0.833008 50.167 -11.5 73.5l60 41c8.66699 -7.33301 18.334 -17 29.001 -29s21.334 -25 32.001 -39
s20.834 -28 30.501 -42s17.834 -26.333 24.501 -37l18 42c6.66699 16 11.334 28 14.001 36l57 35c3.33301 -3.33301 7.83301 -8.66602 13.5 -15.999l18.5 -24c6.66699 -8.66699 13 -17.5 19 -26.5l16 -24.5l9 18l6 12h233v-86h-188z" />
    <glyph glyph-name="ZWSP" unicode="&#x200b;" 
 />
    <glyph glyph-name="endash" unicode="&#x2013;" horiz-adv-x="380" 
d="M1 131v88h378v-88h-378z" />
    <glyph glyph-name="emdash" unicode="&#x2014;" horiz-adv-x="760" 
d="M1 131v88h758v-88h-758z" />
    <glyph glyph-name="quoteleft" unicode="&#x2018;" horiz-adv-x="188" 
d="M157 566c-15.333 -9.33301 -26.999 -17.5 -34.999 -24.5s-15 -15.167 -21 -24.5c14 -3.33301 25 -9.5 33 -18.5s12 -19.833 12 -32.5c0 -14.667 -5.33301 -27.667 -16 -39s-24.334 -17 -41.001 -17c-10.667 0 -20 2.16699 -28 6.5s-14.5 9.83301 -19.5 16.5
s-8.83301 14 -11.5 22s-4 16 -4 24c0 20 7.5 41 22.5 63s38.5 43.667 70.5 65z" />
    <glyph glyph-name="quoteright" unicode="&#x2019;" horiz-adv-x="188" 
d="M148 532c0 -20 -7.5 -41 -22.5 -63s-38.833 -43.667 -71.5 -65l-37 41c14 9.33301 25.167 17.5 33.5 24.5s15.833 15.167 22.5 24.5c-14 3.33301 -25.167 9.5 -33.5 18.5s-12.5 19.833 -12.5 32.5c0 14.667 5.5 27.667 16.5 39s24.5 17 40.5 17
c10.667 0 20.167 -2.16699 28.5 -6.5s15 -9.83301 20 -16.5s8.83301 -14 11.5 -22s4 -16 4 -24z" />
    <glyph glyph-name="quotedblleft" unicode="&#x201c;" horiz-adv-x="308" 
d="M292 566c-15.333 -9.33301 -26.999 -17.5 -34.999 -24.5s-15 -15.167 -21 -24.5c14 -3.33301 25 -9.5 33 -18.5s12 -19.833 12 -32.5c0 -14.667 -5.33301 -27.667 -16 -39s-24.334 -17 -41.001 -17c-10.667 0 -20 2.16699 -28 6.5s-14.5 9.83301 -19.5 16.5
s-8.83301 14 -11.5 22s-4 16 -4 24c0 20 7.5 41 22.5 63s38.5 43.667 70.5 65zM157.001 566c-15.333 -9.33301 -26.999 -17.5 -34.999 -24.5s-15 -15.167 -21 -24.5c14 -3.33301 25 -9.5 33 -18.5s12 -19.833 12 -32.5c0 -14.667 -5.33301 -27.667 -16 -39
s-24.334 -17 -41.001 -17c-10.667 0 -20 2.16699 -28 6.5s-14.5 9.83301 -19.5 16.5s-8.83301 14 -11.5 22s-4 16 -4 24c0 20 7.5 41 22.5 63s38.5 43.667 70.5 65z" />
    <glyph glyph-name="quotedblright" unicode="&#x201d;" horiz-adv-x="315" 
d="M281 532c0 -20 -7.50098 -41 -22.501 -63s-38.5 -43.667 -70.5 -65l-38 41c14.667 9.33301 26 17.5 34 24.5s15.333 15.167 22 24.5c-14 3.33301 -25 9.5 -33 18.5s-12 19.833 -12 32.5c0 14.667 5.33301 27.667 16 39s24.334 17 41.001 17c10.667 0 20 -2.16699 28 -6.5
s14.5 -9.83301 19.5 -16.5s8.83301 -14 11.5 -22s4 -16 4 -24zM145.999 532c0 -20 -7.50098 -41 -22.501 -63s-38.5 -43.667 -70.5 -65l-38 41c14.667 9.33301 26 17.5 34 24.5s15.333 15.167 22 24.5c-14 3.33301 -25 9.5 -33 18.5s-12 19.833 -12 32.5
c0 14.667 5.33301 27.667 16 39s24.334 17 41.001 17c10.667 0 20 -2.16699 28 -6.5s14.5 -9.83301 19.5 -16.5s8.83301 -14 11.5 -22s4 -16 4 -24z" />
    <glyph glyph-name="bullet" unicode="&#x2022;" horiz-adv-x="360" 
d="M348 200c0 -23.333 -4.33301 -45.166 -13 -65.499s-20.667 -38.166 -36 -53.499s-33.166 -27.333 -53.499 -36s-42.166 -13 -65.499 -13s-45.166 4.33301 -65.499 13s-38.166 20.667 -53.499 36s-27.333 33.166 -36 53.499s-13 42.166 -13 65.499
s4.33301 45.166 13 65.499s20.667 38.166 36 53.499s33.166 27.333 53.499 36s42.166 13 65.499 13s45.166 -4.33301 65.499 -13s38.166 -20.667 53.499 -36s27.333 -33.166 36 -53.499s13 -42.166 13 -65.499z" />
    <glyph glyph-name="Euro" unicode="&#x20ac;" horiz-adv-x="556" 
d="M526 59c-35.333 -26 -67.168 -43.6699 -95.501 -53.0029s-57.833 -14 -88.5 -14c-27.333 0 -53.833 4 -79.5 12s-49.5 19 -71.5 33s-41.667 30.833 -59 50.5s-31.666 41.167 -42.999 64.5h-73v90h49c0 3.33301 -0.166992 6.83301 -0.5 10.5s-0.5 7.16699 -0.5 10.5
c0 4.66699 0.166992 9 0.5 13s0.833008 8.33301 1.5 13h-50v90h75c11.333 22.667 25.666 43.667 42.999 63s36.833 36 58.5 50s45.167 24.833 70.5 32.5s52 11.5 80 11.5s56.667 -4.66699 86 -14s61.333 -27.333 96 -54l-52 -77c-15.333 11.333 -29.166 20.333 -41.499 27
s-23.833 11.834 -34.5 15.501s-20.5 6 -29.5 7s-17.833 1.5 -26.5 1.5c-26.667 0 -51.5 -5.66699 -74.5 -17s-42.833 -26.666 -59.5 -45.999h135v-90h-177c-2 -9.33301 -3 -19 -3 -29c0 -3.33301 0.166992 -6.33301 0.5 -9s0.833008 -5.66699 1.5 -9h178v-90h-138
c17.333 -20 37.833 -36.167 61.5 -48.5s48.834 -18.5 75.501 -18.5c8.66699 0 17.5 0.666992 26.5 2s18.833 3.83301 29.5 7.5s22.167 8.83398 34.5 15.501s26.166 15.667 41.499 27z" />
    <glyph glyph-name="trademark" unicode="&#x2122;" horiz-adv-x="596" 
d="M480 401l-76 -187h-30l-77 188l-38 -188h-56l66 314h34l85 -209l86 209h34l65 -314h-56zM153 218h-55v258h-72v53h199v-53h-72v-258z" />
    <glyph glyph-name="uni25CC" unicode="&#x25cc;" horiz-adv-x="670" 
d="M259 179l-48 -15l17 47c8.66699 -12 19 -22.667 31 -32zM312 413l23 45l22 -44c-3.33301 0.666992 -6.83301 1 -10.5 1h-10.5c-4 0 -8 -0.166992 -12 -0.5s-8 -0.833008 -12 -1.5zM355 156l-20 -42l-21 42c3.33301 -0.666992 7 -1.16699 11 -1.5s7.66699 -0.5 11 -0.5
s6.5 0.166992 9.5 0.5s6.16699 0.833008 9.5 1.5zM465 307l42 -22l-42 -19c0.666992 3.33301 1.16699 6.5 1.5 9.5s0.5 6.16699 0.5 9.5s-0.166992 7 -0.5 11s-0.833008 7.66699 -1.5 11zM208 264l-45 23l45 22c-0.666992 -4 -1.16699 -8 -1.5 -12s-0.5 -8 -0.5 -12
c0 -3.33301 0.166992 -6.83301 0.5 -10.5s0.833008 -7.16699 1.5 -10.5zM231 363l-13 46l45 -16c-12 -7.33301 -22.667 -17.333 -32 -30zM440 205l12 -41l-41 13c12 8.66699 21.667 18 29 28zM410 393l49 16l-17 -47c-9.33301 12 -20 22.333 -32 31z" />
    <glyph glyph-name="thothannobasethai" unicode="&#xf700;" horiz-adv-x="427" 
d="M366 375c10 -14 17.833 -29.333 23.5 -46s8.5 -34 8.5 -52c0 -9.33301 -1.5 -20.5 -4.5 -33.5s-6.66699 -26.833 -11 -41.5s-9.5 -30 -15.5 -46l-18 -46c-14 -35.333 -30 -72.333 -48 -111h-90l-98 266h102l42 -117l38 98c2 5.33301 3.66699 10.5 5 15.5s2 10.167 2 15.5
c0 12 -2.5 23.167 -7.5 33.5s-11.667 19.5 -20 27.5s-18.333 14.333 -30 19s-24.167 7 -37.5 7c-15.333 0 -28.666 -2.83301 -39.999 -8.5s-20.833 -13 -28.5 -22s-13.667 -19.5 -18 -31.5s-7.5 -24 -9.5 -36h-97c3.33301 30 10.666 56.667 21.999 80s25.5 43 42.5 59
s36.5 28.333 58.5 37s45.333 13 70 13c30.667 0 59 -6.33301 85 -19l56 61l73 -61z" />
    <glyph glyph-name="saraileftthai" unicode="&#xf701;" 
d="M-480 509v85h308v-85h-308z" />
    <glyph glyph-name="saraiileftthai" unicode="&#xf702;" 
d="M-480 509v85h222v57h86v-142h-308z" />
    <glyph glyph-name="saraueleftthai" unicode="&#xf703;" 
d="M-167 582c0 -20 -7 -37.166 -21 -51.499s-31 -21.5 -51 -21.5h-241v85h170c3.33301 17.333 11.5 31.666 24.5 42.999s28.5 17 46.5 17c20 0 37 -7 51 -21s21 -31 21 -51zM-264 581.001c0 -6.66699 2.33301 -12.334 7 -17.001s10.334 -7 17.001 -7
s12.334 2.33301 17.001 7s7 10.334 7 17.001s-2.33301 12.334 -7 17.001s-10.334 7 -17.001 7s-12.334 -2.33301 -17.001 -7s-7 -10.334 -7 -17.001z" />
    <glyph glyph-name="saraueeleftthai" unicode="&#xf704;" 
d="M-480 509v84h106v58h81v-58h40v58h81v-142h-308z" />
    <glyph glyph-name="maieklowleftthai" unicode="&#xf705;" 
d="M-285 509v178h93v-178h-93z" />
    <glyph glyph-name="maitholowleftthai" unicode="&#xf706;" 
d="M-404 509l19.502 34.499c7.66699 13.667 13.5 24.834 17.5 33.501c2.66699 4.66699 3.66699 10.5 3 17.5s-4.66699 10.5 -12 10.5c-6.66699 0 -11 -2 -13 -6l-46 45c8 8.66699 17.667 15.167 29 19.5s22.666 6.5 33.999 6.5c21.333 0 40.166 -6.83301 56.499 -20.5
s24.5 -32.167 24.5 -55.5c0 -4.66699 -0.333008 -8 -1 -10h9h118v-75h-239z" />
    <glyph glyph-name="maitrilowleftthai" unicode="&#xf707;" 
d="M-313 509c5.33301 8.66699 12.1689 19.168 20.502 31.501s14.166 23.166 17.499 32.499c2 6 1.66699 11.5 -1 16.5s-6.66699 7.5 -12 7.5c-4 0 -7.83301 -1.83301 -11.5 -5.5s-5.5 -10.167 -5.5 -19.5h-53c-1.33301 17.333 -6.66602 26 -15.999 26
c-10 0 -15 -5.33301 -15 -16c0 -5.33301 2 -9.83301 6 -13.5l11 -10.5l9 -6l-51 -48c-16.667 9.33301 -30 20.333 -40 33s-15 27 -15 43c0 25.333 8.83301 46 26.5 62s38.834 24 63.501 24c7.33301 0 15.166 -1.33301 23.499 -4s16.166 -7 23.499 -13
c7.33301 6 15.166 10.333 23.499 13s16.5 4 24.5 4c23.333 0 43.5 -7.5 60.5 -22.5s26.167 -34.5 27.5 -58.5h4h27v-76h-148z" />
    <glyph glyph-name="maichattawalowleftthai" unicode="&#xf708;" 
d="M-225 566v-57h-90v56h-59v83h59v57h90v-56h60v-83h-60z" />
    <glyph glyph-name="thanthakhatlowleftthai" unicode="&#xf709;" 
d="M-258 571c-4.66699 0 -7.66699 -1.16797 -9 -3.50098s0 -5.16602 4 -8.49902l20 -20l-51 -56c-18 16 -31.167 31.333 -39.5 46s-12.5 29 -12.5 43c0 24.667 7.5 44 22.5 58s35.167 21 60.5 21h98v-80h-93z" />
    <glyph glyph-name="maieklowrightthai" unicode="&#xf70a;" 
d="M-131 509v179h93v-178z" />
    <glyph glyph-name="maitholowrightthai" unicode="&#xf70b;" 
d="M-276 509l19.002 34.499l18 33.5c2 4.66699 2.66699 10.5 2 17.5s-4.66699 10.5 -12 10.5c-6 0 -10.333 -2 -13 -6l-46 45c8.66699 8.66699 18.667 15.167 30 19.5s22.666 6.5 33.999 6.5c21.333 0 40.166 -6.83301 56.499 -20.5s24.5 -32.167 24.5 -55.5
c0 -1.33301 -0.666992 -4.66602 -2 -9.99902h9h118v-75h-238z" />
    <glyph glyph-name="maitrilowrightthai" unicode="&#xf70c;" 
d="M-197 509l19.999 31.999c8 12.667 13.667 23.334 17 32.001c2.66699 6 2.5 11.5 -0.5 16.5s-7.16699 7.5 -12.5 7.5c-4.66699 0 -8.66699 -2 -12 -6s-5 -10.333 -5 -19h-52c-0.666992 9.33301 -2.66699 16 -6 20s-7 6 -11 6c-9.33301 0 -14 -5.33301 -14 -16
c0 -7.33301 2.83301 -13.333 8.5 -18s10.834 -8.66699 15.501 -12l-49 -48c-17.333 9.33301 -30.833 20.333 -40.5 33s-14.5 27 -14.5 43c0 25.333 8.83301 46 26.5 62s38.5 24 62.5 24c8 0 16.167 -1.33301 24.5 -4s16.166 -7 23.499 -13
c6.66699 6 14.334 10.333 23.001 13s17 4 25 4c22.667 0 42.5 -7.5 59.5 -22.5s26.167 -34.5 27.5 -58.5h4h77v-76h-197z" />
    <glyph glyph-name="maichattawalowrightthai" unicode="&#xf70d;" 
d="M-38 566v-57h-90v56h-59v83h59v57h90v-56h60v-83h-60z" />
    <glyph glyph-name="thanthakhatlowrightthai" unicode="&#xf70e;" 
d="M-107 578c-4.66699 0 -7.66699 -1.16797 -9 -3.50098s0 -5.16602 4 -8.49902l20 -20l-56 -56c-18 16 -30.333 31.167 -37 45.5s-10 28.833 -10 43.5c0 24.667 7.5 44 22.5 58s35.167 21 60.5 21h98v-80h-93z" />
    <glyph glyph-name="yoyingnobasethai" unicode="&#xf70f;" horiz-adv-x="749" 
d="M719 162c0 -23.333 -4.66895 -45.3311 -14.002 -65.998s-22.333 -38.667 -39 -54s-36 -27.333 -58 -36s-45.667 -13 -71 -13s-49.166 4.33301 -71.499 13s-41.833 20.667 -58.5 36s-29.667 33.333 -39 54s-14 42.667 -14 66v95c0 32 -11.667 58.167 -35 78.5
s-54.333 30.5 -93 30.5c-17.333 0 -34.166 -3.5 -50.499 -10.5s-30.5 -16.167 -42.5 -27.5l24 -24v-213h65v-91h-163v271l-50 51c25.333 42 56.666 74.833 93.999 98.5s78.333 35.5 123 35.5c32.667 0 62.834 -5 90.501 -15s51.5 -23.833 71.5 -41.5
s35.667 -38.834 47 -63.501s17 -51.334 17 -80.001v-94c0 -21.333 8 -39.833 24 -55.5s36.333 -23.5 61 -23.5s45 7.5 61 22.5s24 33.833 24 56.5v289h98z" />
    <glyph glyph-name="maihanakatleftthai" unicode="&#xf710;" 
d="M-221 510c-24 0 -44.167 8.5 -60.5 25.5s-24.5 36.833 -24.5 59.5v56h84v-56h237v-85h-236z" />
    <glyph glyph-name="nikhahitleftthai" unicode="&#xf711;" 
d="M-171 592c0 -24.667 -8.66699 -45.667 -26 -63s-38.333 -26 -63 -26s-45.667 8.66699 -63 26s-26 38.333 -26 63s8.66699 45.667 26 63s38.333 26 63 26s45.667 -8.66699 63 -26s26 -38.333 26 -63zM-234 591c0 7.33301 -2.5 13.666 -7.5 18.999s-11.167 8 -18.5 8
s-13.5 -2.66699 -18.5 -8s-7.5 -11.666 -7.5 -18.999s2.5 -13.5 7.5 -18.5s11.167 -7.5 18.5 -7.5s13.5 2.5 18.5 7.5s7.5 11.167 7.5 18.5z" />
    <glyph glyph-name="maitaikhuleftthai" unicode="&#xf712;" 
d="M-388 661c-6 0 -11 -4.16602 -15 -12.499s-6 -16.833 -6 -25.5c0 -12 2 -21.5 6 -28.5s9.33301 -10.5 16 -10.5c14 0 21 14 21 42h77c0 -28.667 6.66699 -43 20 -43c8 0 13.5 3.5 16.5 10.5s4.5 17.833 4.5 32.5h80c0 -42.667 -9.66699 -72.834 -29 -90.501
s-43 -26.5 -71 -26.5c-22 0 -42 7 -60 21c-18 -14 -38 -21 -60 -21c-14.667 0 -28.167 3 -40.5 9s-22.833 14.167 -31.5 24.5s-15.5 22.333 -20.5 36s-7.5 28.5 -7.5 44.5s2.5 30.833 7.5 44.5s11.833 25.667 20.5 36s19.167 18.5 31.5 24.5s25.833 9 40.5 9h237v-76h-237z
" />
    <glyph glyph-name="maiekupperleftthai" unicode="&#xf713;" 
d="M-258 703v146h86v-146h-86z" />
    <glyph glyph-name="maithoupperleftthai" unicode="&#xf714;" 
d="M-292 703l18.001 31.499c6.66699 11.667 12.334 22.167 17.001 31.5c2 4.66699 2.66699 10.334 2 17.001s-4.66699 10 -12 10c-6 0 -10.333 -2 -13 -6l-45 46c8 8.66699 17.667 15.167 29 19.5s22.666 6.5 33.999 6.5c21.333 0 40.166 -6.83301 56.499 -20.5
s24.5 -32.167 24.5 -55.5c0 -3.33301 -0.666992 -7 -2 -11l9 1l136 -1v-69h-254z" />
    <glyph glyph-name="maitriupperleftthai" unicode="&#xf715;" 
d="M-183 703c4 5.33301 7.50195 10.5 10.502 15.5s6.16699 9.83301 9.5 14.5c3.33301 6 6.16602 11.5 8.49902 16.5s4.16602 9.16699 5.49902 12.5c1.33301 4.66699 1.33301 10.167 0 16.5s-6 9.5 -14 9.5c-7.33301 0 -12.166 -2 -14.499 -6s-3.83301 -11 -4.5 -21h-48
c-0.666992 5.33301 -2.16699 11 -4.5 17s-6.16602 9 -11.499 9c-12 0 -18 -5.33301 -18 -16c0 -5.33301 2 -10.333 6 -15s8.33301 -8.66699 13 -12l2 -1l-46 -44c-15.333 8.66699 -27.5 19 -36.5 31s-13.5 25.333 -13.5 40c0 24 8.33301 43.667 25 59s36.667 23 60 23
c17.333 0 33.333 -6.33301 48 -19c7.33301 6.66699 15.333 11.5 24 14.5s16.667 4.5 24 4.5c21.333 0 40.166 -7.33301 56.499 -22s25.166 -34.667 26.499 -60l8 1l66 -1v-67h-182z" />
    <glyph glyph-name="maichattawaupperleftthai" unicode="&#xf716;" 
d="M-172 747v-44h-86v43h-46v77h45v44h86v-43h46v-77h-45z" />
    <glyph glyph-name="thanthakhatupperleftthai" unicode="&#xf717;" 
d="M-225 728c-4.66699 0 -7.66699 -1.33398 -9 -4.00098s0 -5.66699 4 -9l21 -20l-56 -55c-18 16 -30.5 31.167 -37.5 45.5s-10.5 28.833 -10.5 43.5c0 24.667 7.66699 43.834 23 57.501s35.333 20.5 60 20.5h98v-79h-93z" />
    <glyph glyph-name="saraulowthai" unicode="&#xf718;" 
d="M-129 -371v80h-41v91h83c13.333 0 24.833 -4.83301 34.5 -14.5s14.5 -21.167 14.5 -34.5v-122h-91z" />
    <glyph glyph-name="sarauulowthai" unicode="&#xf719;" 
d="M-38 -283c0 -30 -10.3311 -54.335 -30.998 -73.002s-46 -28 -76 -28c-14 0 -27.667 1.83301 -41 5.5s-25.5 9.33398 -36.5 17.001s-19.833 17.334 -26.5 29.001s-10 25.5 -10 41.5h-40v91h129v-85c0 -6 2.16699 -10.667 6.5 -14s9.16602 -5 14.499 -5
s10.166 1.66699 14.499 5s6.5 8 6.5 14v85h90v-84v1z" />
    <glyph glyph-name="phinthulowthai" unicode="&#xf71a;" 
d="M-28 -252c0 -16 -5.66699 -29.666 -17 -40.999s-24.666 -17 -39.999 -17c-16 0 -29.667 5.66699 -41 17s-17 24.666 -17 39.999c0 16 5.66699 29.667 17 41s24.666 17 39.999 17c16 0 29.667 -5.66699 41 -17s17 -25 17 -41v1z" />
    <glyph glyph-name="lochula.short" unicode="&#xf71d;" horiz-adv-x="545" 
d="M507 451c0 -24.667 -7 -45.999 -21 -63.999c14 -20 21 -43 21 -69v-191c0 -18.667 -3.66699 -36 -11 -52s-17.5 -30 -30.5 -42s-28 -21.333 -45 -28s-35.167 -10 -54.5 -10c-36 0 -67 11 -93 33c-26 -22 -57 -33 -93 -33c-19.333 0 -37.666 3.33301 -54.999 10
s-32.5 16 -45.5 28s-23.167 26 -30.5 42s-11 33.333 -11 52v323h97v-323c0 -11.333 4.16699 -21 12.5 -29s19.166 -12 32.499 -12c12.667 0 23.167 4 31.5 12s12.5 17.667 12.5 29v172h97v-172c0 -11.333 4.16699 -21 12.5 -29s19.166 -12 32.499 -12
c12.667 0 23.334 4 32.001 12s13 17.667 13 29v192c0 15.333 -2.83301 25.5 -8.5 30.5s-13.167 7.5 -22.5 7.5h-59v83h64c10.667 0 18 0.166992 22 0.5s6 4.16602 6 11.499v36h95z" />
    <glyph glyph-name="rulakkhangyao" unicode="&#xf881;" horiz-adv-x="745" 
d="M707 -171h-97v452c0 58 -28 87 -84 87c-14 0 -27.667 -2.83301 -41 -8.5s-29.333 -17.5 -48 -35.5v1c7.33301 -23.333 11 -46 11 -68v-428h-97l1 428c0 32 -11.5 58.333 -34.5 79s-53.5 31 -91.5 31c-16.667 0 -33 -3.5 -49 -10.5s-30 -16.167 -42 -27.5l24 -25v-214h64
v-90h-161v272l-48 51c26 42 56.833 74.833 92.5 98.5s75.5 35.5 119.5 35.5c32 0 61.667 -5 89 -15s50.666 -23.667 69.999 -41c24.667 22.667 48.167 37.5 70.5 44.5s46.166 10.5 71.499 10.5c30.667 0 57.334 -4.5 80.001 -13.5s41.334 -21.333 56.001 -37
s25.667 -33.667 33 -54s11 -41.5 11 -63.5v-459z" />
    <glyph glyph-name="lulakkhangyao" unicode="&#xf882;" horiz-adv-x="751" 
d="M713 -171h-96.999v452c0 58 -28 87 -84 87c-15.333 0 -29.833 -2.83301 -43.5 -8.5s-28.5 -17.167 -44.5 -34.5c7.33301 -23.333 11 -46 11 -68v-428h-96v428c0 32 -11.5 58.333 -34.5 79s-53.5 31 -91.5 31c-16.667 0 -32.834 -3.5 -48.501 -10.5
s-29.834 -16.167 -42.501 -27.5l24 -25v-304h-139v90h42v182l-48 51c25.333 42 56 74.833 92 98.5s76 35.5 120 35.5c32 0 61.5 -5 88.5 -15s50.167 -23.667 69.5 -41c24.667 22.667 48.167 37.5 70.5 44.5s46.166 10.5 71.499 10.5c30.667 0 57.334 -4.5 80.001 -13.5
s41.334 -21.333 56.001 -37s25.667 -33.667 33 -54s11 -41.5 11 -63.5v-459z" />
    <glyph glyph-name=".null" 
 />
    <glyph glyph-name="nonmarkingreturn" horiz-adv-x="283" 
 />
    <glyph glyph-name="yamakkanleftthai" 
d="M-173 668c-8 7.33301 -13.832 12.0029 -17.499 14.0029s-7.16699 3 -10.5 3c-7.33301 0 -13.333 -2.33301 -18 -7s-7 -10.334 -7 -17.001c0 -6 3 -11.667 9 -17s17.333 -8 34 -8v-59c-16.667 0 -28 -2.5 -34 -7.5s-9 -10.833 -9 -17.5c0 -6 3 -11.5 9 -16.5
s17.333 -7.5 34 -7.5v-60c-32 0 -57 8.16699 -75 24.5s-27 36.166 -27 59.499c0 20.667 6.66699 38.667 20 54c-13.333 15.333 -20 33.666 -20 54.999c0 23.333 8.16699 43 24.5 59s36.166 24 59.499 24c12 0 23.5 -2.5 34.5 -7.5s23.167 -14.167 36.5 -27.5z" />
    <glyph glyph-name="saraamleft" horiz-adv-x="371" 
d="M333 0h-97.002v281c0 58 -28 87 -84 87c-14 0 -27.667 -2.83301 -41 -8.5s-29.333 -17.5 -48 -35.5l-65 65c28 27.333 54 45.333 78 54s49.667 13 77 13c30.667 0 57.334 -4.5 80.001 -13.5s41.334 -21.333 56.001 -37s25.667 -33.667 33 -54s11 -41.5 11 -63.5v-288z
M-171.002 592c0 -24.667 -8.66699 -45.667 -26 -63s-38.333 -26 -63 -26s-45.667 8.66699 -63 26s-26 38.333 -26 63s8.66699 45.667 26 63s38.333 26 63 26s45.667 -8.66699 63 -26s26 -38.333 26 -63zM-234.002 591c0 7.33301 -2.5 13.666 -7.5 18.999s-11.167 8 -18.5 8
s-13.5 -2.66699 -18.5 -8s-7.5 -11.666 -7.5 -18.999s2.5 -13.5 7.5 -18.5s11.167 -7.5 18.5 -7.5s13.5 2.5 18.5 7.5s7.5 11.167 7.5 18.5z" />
    <glyph glyph-name="uni0E33.alt1" horiz-adv-x="371" 
d="M333 0h-97.002v281c0 58 -28 87 -84 87c-14 0 -27.667 -2.83301 -41 -8.5s-29.333 -17.5 -48 -35.5l-65 65c28 27.333 54 45.333 78 54s49.667 13 77 13c30.667 0 57.334 -4.5 80.001 -13.5s41.334 -21.333 56.001 -37s25.667 -33.667 33 -54s11 -41.5 11 -63.5v-288z
M-171.002 592c0 -24.667 -8.66699 -45.667 -26 -63s-38.333 -26 -63 -26s-45.667 8.66699 -63 26s-26 38.333 -26 63s8.66699 45.667 26 63s38.333 26 63 26s45.667 -8.66699 63 -26s26 -38.333 26 -63zM-234.002 591c0 7.33301 -2.5 13.666 -7.5 18.999s-11.167 8 -18.5 8
s-13.5 -2.66699 -18.5 -8s-7.5 -11.666 -7.5 -18.999s2.5 -13.5 7.5 -18.5s11.167 -7.5 18.5 -7.5s13.5 2.5 18.5 7.5s7.5 11.167 7.5 18.5z" />
    <glyph glyph-name="sarainarrowthai" 
d="M-406 510v85h368v-85h-368z" />
    <glyph glyph-name="saraiinarrowthai" 
d="M-406 510v85h283v60h85v-145h-368z" />
    <glyph glyph-name="sarauenarrowthai" 
d="M-31 583c0 -20 -7.16602 -37.166 -21.499 -51.499s-31.166 -21.5 -50.499 -21.5h-303v85h231c3.33301 17.333 11.666 31.666 24.999 42.999s28.666 17 45.999 17c20 0 37.167 -7 51.5 -21s21.5 -31 21.5 -51zM-79.999 582.001c0 6.66699 -2.33301 12.334 -7 17.001
s-10.334 7 -17.001 7s-12.334 -2.33301 -17.001 -7s-7 -10.334 -7 -17.001s2.33301 -12.334 7 -17.001s10.334 -7 17.001 -7s12.334 2.33301 17.001 7s7 10.334 7 17.001z" />
    <glyph glyph-name="saraueenarrowthai" 
d="M-406 510v85h167v60h80v-60h40v60h81v-145h-368z" />
    <glyph glyph-name="sarauchochanthai" 
d="M-217 -216v80h-40v92h82c13.333 0 24.833 -4.83301 34.5 -14.5s14.5 -21.167 14.5 -34.5v-123h-91z" />
    <glyph glyph-name="sarauuchochanthai" 
d="M-68 -128c0 -30 -10.3311 -54.335 -30.998 -73.002s-46 -28 -76 -28c-14 0 -27.667 1.83301 -41 5.5s-25.5 9.33398 -36.5 17.001s-19.833 17.334 -26.5 29.001s-10 25.5 -10 41.5h-40v91h129v-85c0 -6 2.16699 -10.667 6.5 -14s9.16602 -5 14.499 -5
s10.166 1.66699 14.499 5s6.5 8 6.5 14v85h90v-84v1z" />
    </font>
</defs>
</svg>
