<svg xmlns="http://www.w3.org/2000/svg">
<defs>
<font id="DBAdmanX" horiz-adv-x="0" >
  <font-face 
    font-family="DB Adman X"
    font-weight="400"
    font-stretch="normal"
    units-per-em="1000"
    panose-1="2 0 5 6 9 0 0 2 0 4"
    ascent="800"
    descent="-200"
    x-height="365"
    cap-height="528"
    bbox="-437.994 -358.001 955 828"
    underline-thickness="20"
    underline-position="-113"
    unicode-range="U+0020-U+F882"
  />
<missing-glyph horiz-adv-x="414" 
d="M422 400v-14h6c4.66699 0 7 3 7 9c0 0.666992 -0.5 1.66699 -1.5 3s-2.83301 2 -5.5 2h-6zM425 385h-3v-14h-5v34h11c8 0 12 -3.33301 12 -10c0 -4.66699 -1 -7.5 -3 -8.5s-4.33301 -1.5 -7 -1.5l10 -14h-5zM428 366c8.66699 0 14.5 2.33301 17.5 7s4.5 9 4.5 13
c0 16 -7.33301 24 -22 24c-15.333 0 -23 -8 -23 -24c0 -5.33301 1.83301 -10 5.5 -14s9.5 -6 17.5 -6zM428 413c8.66699 0 15 -2.66699 19 -8s6 -11.666 6 -18.999c0 -5.33301 -2 -10.5 -6 -15.5s-10.333 -7.5 -19 -7.5c-8 0 -14.333 2.5 -19 7.5s-7 10.167 -7 15.5
c0 7.33301 2.33301 13.666 7 18.999s11 8 19 8zM201 316c10.667 -0.666992 23.1689 -1.99805 37.502 -3.99805s28.666 -4.33301 42.999 -7s27.5 -5.83398 39.5 -9.50098s21 -7.83398 27 -12.501c-13.333 26.667 -34 47.167 -62 61.5s-56.667 21.5 -86 21.5
c-22.667 0 -44.334 -4.33301 -65.001 -13s-37.667 -22 -51 -40c12 1.33301 24 2.33301 36 3s24 1 36 1h22.5c7.66699 0 15.167 -0.333008 22.5 -1zM375.002 395.002l-0.000976562 -142c-32 10 -68.5 18.5 -109.5 25.5s-84.5 10.5 -130.5 10.5c-32 0 -63.333 -2 -94 -6
c4 14.667 10.333 28.834 19 42.501s19.667 25.667 33 36s28.833 18.5 46.5 24.5s37.167 9 58.5 9c20.667 0 39.334 -2.33301 56.001 -7s31.167 -10.334 43.5 -17.001s22.833 -14 31.5 -22s15 -15 19 -21c0 -0.666992 0 1.5 0 6.5s-0.166992 11.167 -0.5 18.5
s-0.5 15 -0.5 23v19h28zM153.001 127.002c0 5.33301 -1.83301 9.33301 -5.5 12s-7.5 4 -11.5 4c-4.66699 0 -8.66699 -1.33301 -12 -4s-5 -6.66699 -5 -12s1.66699 -9.16602 5 -11.499s7.33301 -3.5 12 -3.5c4 0 7.83301 1.16699 11.5 3.5s5.5 6.16602 5.5 11.499z

<glyph glyph-name="plusminus" unicode="&#x2b;&#x2d;" horiz-adv-x="390" 
d="M227 232v-145h-63v145h-146v63h145v146h63v-146h146v-63h-145zM18 0v63h354v-63h-354z" />
    <glyph glyph-name="ellipsis" unicode="&#x2e;&#x2e;&#x2e;" horiz-adv-x="469" 
d="M439 45c0 -14 -4.83301 -25.667 -14.5 -35s-21.167 -14 -34.5 -14s-24.833 4.66699 -34.5 14s-14.5 20.666 -14.5 33.999c0 14 4.83301 25.667 14.5 35s21.167 14 34.5 14s24.833 -4.66699 34.5 -14s14.5 -20.666 14.5 -33.999zM283 45
c0 -14 -4.83203 -25.667 -14.499 -35s-21.167 -14 -34.5 -14s-24.833 4.66699 -34.5 14s-14.5 20.666 -14.5 33.999c0 14 4.83301 25.667 14.5 35s21.167 14 34.5 14s24.666 -4.66699 33.999 -14s14 -20.666 14 -33.999h1zM127.001 45c0 -14 -4.83203 -25.667 -14.499 -35
s-21.167 -14 -34.5 -14s-24.833 4.66699 -34.5 14s-14.5 20.666 -14.5 33.999c0 14 4.83301 25.667 14.5 35s21.167 14 34.5 14s24.666 -4.66699 33.999 -14s14 -20.666 14 -33.999h1z" />
    <glyph glyph-name="lessequal" unicode="&#x3c;&#x3d;" horiz-adv-x="391" 
d="M23 295v58l345 171v-68l-261 -132l261 -141v-67zM368 53v-67l-345 179v74z" />
    <glyph glyph-name="greaterequal" unicode="&#x3e;&#x3d;" horiz-adv-x="391" 
d="M23 116v67l261 141l-261 132v68l345 -171v-58zM368 239v-74l-345 -179v67z" />
    <glyph glyph-name="fongmanfunnuthai" unicode="&#xe4f;&#x22;" horiz-adv-x="530" 
d="M334 463h-42l-9 149h60zM236 463h-40l-9 149h59zM485 212c0 -30 -5.83301 -58.333 -17.5 -85s-27.5 -50 -47.5 -70s-43.333 -35.833 -70 -47.5s-55 -17.5 -85 -17.5s-58.333 5.83301 -85 17.5s-50 27.5 -70 47.5s-35.833 43.333 -47.5 70s-17.5 55 -17.5 85
s5.83301 58.333 17.5 85s27.5 50 47.5 70s43.333 35.833 70 47.5s55 17.5 85 17.5s58.333 -5.83301 85 -17.5s50 -27.5 70 -47.5s35.833 -43.333 47.5 -70s17.5 -55 17.5 -85zM383 212c0 -16 -3.16699 -31.167 -9.5 -45.5s-14.833 -26.833 -25.5 -37.5
s-23.167 -19.167 -37.5 -25.5s-29.5 -9.5 -45.5 -9.5s-31.167 3.16699 -45.5 9.5s-26.833 14.833 -37.5 25.5s-19.167 23.167 -25.5 37.5s-9.5 29.5 -9.5 45.5s3.16699 31.167 9.5 45.5s14.833 26.833 25.5 37.5s23.167 19.167 37.5 25.5s29.5 9.5 45.5 9.5
s31.167 -3.16699 45.5 -9.5s26.833 -14.833 37.5 -25.5s19.167 -23.167 25.5 -37.5s9.5 -29.5 9.5 -45.5zM328 212c0 17.333 -6.16699 32.166 -18.5 44.499s-27.166 18.5 -44.499 18.5s-32.166 -6.16699 -44.499 -18.5s-18.5 -27.166 -18.5 -44.499
s6.16699 -32.166 18.5 -44.499s27.166 -18.5 44.499 -18.5s32.166 6.16699 44.499 18.5s18.5 27.166 18.5 44.499zM428 211c0 22.667 -4.33203 43.8359 -12.999 63.5029s-20.334 37 -35.001 52s-31.834 26.833 -51.501 35.5s-40.834 13 -63.501 13
s-43.834 -4.33301 -63.501 -13s-36.834 -20.334 -51.501 -35.001s-26.334 -31.834 -35.001 -51.501s-13 -40.834 -13 -63.501s4.33301 -43.834 13 -63.501s20.334 -36.834 35.001 -51.501s31.834 -26.334 51.501 -35.001s40.834 -13 63.501 -13s43.834 4.33301 63.501 13
s36.834 20.334 51.501 35.001s26.167 31.834 34.5 51.501s12.5 40.834 12.5 63.501z" />
    <glyph glyph-name="dochadaphinthuthai" unicode="&#xe0e;&#xe3a;" horiz-adv-x="465" 
d="M322 -183c-23.333 17.333 -45.499 30.001 -66.499 38.001s-42.833 12 -65.5 12c-22 0 -43.5 -3.83301 -64.5 -11.5s-43.167 -20.5 -66.5 -38.5l-42 50c30 22 58.833 38.167 86.5 48.5s56.5 15.5 86.5 15.5c45.333 0 86.666 -10.333 123.999 -31l48 47v312
c0 40 -13.5 72.167 -40.5 96.5s-61.5 36.5 -103.5 36.5c-22 0 -43.167 -5.33301 -63.5 -16s-37.5 -24 -51.5 -40l31 -33v-303h-110v65h43v216l-46 50c21.333 38 49 68.333 83 91s72 34 114 34c30.667 0 59 -4.83301 85 -14.5s48.333 -23.334 67 -41.001
s33.167 -38.5 43.5 -62.5s15.5 -50.333 15.5 -79v-338zM434.001 -237.999c0 -12 -4.33301 -22.333 -13 -31s-19.334 -13 -32.001 -13s-23.334 4.33301 -32.001 13s-13 19 -13 31s4.33301 22.333 13 31s19.334 13 32.001 13s23.334 -4.33301 32.001 -13s13 -19 13 -31z" />
    <glyph glyph-name="topatakphintuthai" unicode="&#xe0f;&#xe3a;" horiz-adv-x="465" 
d="M320 -185l-72.001 70l-71 -70l-121 117l47 46l74 -71l72 69l72 -70l41 40v313c0 19.333 -3.5 37.166 -10.5 53.499s-17 30.333 -30 42s-28.333 20.667 -46 27s-36.834 9.5 -57.501 9.5c-22 0 -43.167 -5.16699 -63.5 -15.5s-37.166 -23.833 -50.499 -40.5l30 -32v-303
h-110v65h43v215l-46 51c21.333 38 49.333 68.333 84 91s72.334 34 113.001 34c30.667 0 59 -5 85 -15s48.333 -23.667 67 -41s33.167 -38.166 43.5 -62.499s15.5 -50.833 15.5 -79.5v-337zM433.999 -238c0 -12 -4.33301 -22.333 -13 -31s-19.334 -13 -32.001 -13
s-23.334 4.33301 -32.001 13s-13 19 -13 31s4.33301 22.333 13 31s19.334 13 32.001 13s23.334 -4.33301 32.001 -13s13 -19 13 -31z" />
    <glyph glyph-name="dochadasarauthai" unicode="&#xe0e;&#xe38;" horiz-adv-x="465" 
d="M322 -183c-23.333 17.333 -45.499 30.001 -66.499 38.001s-42.833 12 -65.5 12c-22 0 -43.5 -3.83301 -64.5 -11.5s-43.167 -20.5 -66.5 -38.5l-42 50c30 22 58.833 38.167 86.5 48.5s56.5 15.5 86.5 15.5c45.333 0 86.666 -10.333 123.999 -31l48 47v312
c0 40 -13.5 72.167 -40.5 96.5s-61.5 36.5 -103.5 36.5c-22 0 -43.167 -5.33301 -63.5 -16s-37.5 -24 -51.5 -40l31 -33v-303h-110v65h43v216l-46 50c21.333 38 49 68.333 83 91s72 34 114 34c30.667 0 59 -4.83301 85 -14.5s48.333 -23.334 67 -41.001
s33.167 -38.5 43.5 -62.5s15.5 -50.333 15.5 -79v-338zM367.001 -341.999v80h-40v63h68c10 0 18.333 -3.33301 25 -10s10 -15 10 -25v-108h-63z" />
    <glyph glyph-name="topataksarauthai" unicode="&#xe0f;&#xe38;" horiz-adv-x="465" 
d="M320 -185l-72.001 70l-71 -70l-121 117l47 46l74 -71l72 69l72 -70l41 40v313c0 19.333 -3.5 37.166 -10.5 53.499s-17 30.333 -30 42s-28.333 20.667 -46 27s-36.834 9.5 -57.501 9.5c-22 0 -43.167 -5.16699 -63.5 -15.5s-37.166 -23.833 -50.499 -40.5l30 -32v-303
h-110v65h43v215l-46 51c21.333 38 49.333 68.333 84 91s72.334 34 113.001 34c30.667 0 59 -5 85 -15s48.333 -23.667 67 -41s33.167 -38.166 43.5 -62.499s15.5 -50.833 15.5 -79.5v-337zM366.999 -342v80h-40v63h68c10 0 18.333 -3.33301 25 -10s10 -15 10 -25v-108h-63z
" />
    <glyph glyph-name="dochadasarauuthai" unicode="&#xe0e;&#xe39;" horiz-adv-x="465" 
d="M322 -183c-23.333 17.333 -45.499 30.001 -66.499 38.001s-42.833 12 -65.5 12c-22 0 -43.5 -3.83301 -64.5 -11.5s-43.167 -20.5 -66.5 -38.5l-42 50c30 22 58.833 38.167 86.5 48.5s56.5 15.5 86.5 15.5c45.333 0 86.666 -10.333 123.999 -31l48 47v312
c0 40 -13.5 72.167 -40.5 96.5s-61.5 36.5 -103.5 36.5c-22 0 -43.167 -5.33301 -63.5 -16s-37.5 -24 -51.5 -40l31 -33v-303h-110v65h43v216l-46 50c21.333 38 49 68.333 83 91s72 34 114 34c30.667 0 59 -4.83301 85 -14.5s48.333 -23.334 67 -41.001
s33.167 -38.5 43.5 -62.5s15.5 -50.333 15.5 -79v-338zM429.001 -268.999c0 -12 -2.3291 -23.332 -6.99609 -33.999s-10.834 -19.834 -18.501 -27.501s-16.667 -13.834 -27 -18.501s-21.5 -7 -33.5 -7s-23.333 2.33301 -34 7s-19.834 10.834 -27.501 18.501
s-13.834 16.667 -18.501 27s-7 21.5 -7 33.5v7h-40v63h103v-69c0 -6.66699 2 -12.334 6 -17.001s9.66699 -7 17 -7s13.166 2.33301 17.499 7s6.5 10.334 6.5 17.001v69h63v-70v1z" />
    <glyph glyph-name="topataksarauuthai" unicode="&#xe0f;&#xe39;" horiz-adv-x="465" 
d="M320 -185l-72.001 70l-71 -70l-121 117l47 46l74 -71l72 69l72 -70l41 40v313c0 19.333 -3.5 37.166 -10.5 53.499s-17 30.333 -30 42s-28.333 20.667 -46 27s-36.834 9.5 -57.501 9.5c-22 0 -43.167 -5.16699 -63.5 -15.5s-37.166 -23.833 -50.499 -40.5l30 -32v-303
h-110v65h43v215l-46 51c21.333 38 49.333 68.333 84 91s72.334 34 113.001 34c30.667 0 59 -5 85 -15s48.333 -23.667 67 -41s33.167 -38.166 43.5 -62.499s15.5 -50.833 15.5 -79.5v-337zM428.999 -271c0 -12 -2.3291 -23.332 -6.99609 -33.999
s-10.834 -19.834 -18.501 -27.501s-16.667 -13.834 -27 -18.501s-21.5 -7 -33.5 -7s-23.333 2.33301 -34 7s-19.834 10.834 -27.501 18.501s-13.834 16.667 -18.501 27s-7 21.5 -7 33.5v7h-40v63h103v-69c0 -6.66699 2 -12.334 6 -17.001s9.66699 -7 17 -7
s13.166 2.33301 17.499 7s6.5 10.334 6.5 17.001v69h63v-70v1z" />
    <glyph glyph-name=".notdef" horiz-adv-x="414" 
d="M422 400v-14h6c4.66699 0 7 3 7 9c0 0.666992 -0.5 1.66699 -1.5 3s-2.83301 2 -5.5 2h-6zM425 385h-3v-14h-5v34h11c8 0 12 -3.33301 12 -10c0 -4.66699 -1 -7.5 -3 -8.5s-4.33301 -1.5 -7 -1.5l10 -14h-5zM428 366c8.66699 0 14.5 2.33301 17.5 7s4.5 9 4.5 13
c0 16 -7.33301 24 -22 24c-15.333 0 -23 -8 -23 -24c0 -5.33301 1.83301 -10 5.5 -14s9.5 -6 17.5 -6zM428 413c8.66699 0 15 -2.66699 19 -8s6 -11.666 6 -18.999c0 -5.33301 -2 -10.5 -6 -15.5s-10.333 -7.5 -19 -7.5c-8 0 -14.333 2.5 -19 7.5s-7 10.167 -7 15.5
c0 7.33301 2.33301 13.666 7 18.999s11 8 19 8zM201 316c10.667 -0.666992 23.1689 -1.99805 37.502 -3.99805s28.666 -4.33301 42.999 -7s27.5 -5.83398 39.5 -9.50098s21 -7.83398 27 -12.501c-13.333 26.667 -34 47.167 -62 61.5s-56.667 21.5 -86 21.5
c-22.667 0 -44.334 -4.33301 -65.001 -13s-37.667 -22 -51 -40c12 1.33301 24 2.33301 36 3s24 1 36 1h22.5c7.66699 0 15.167 -0.333008 22.5 -1zM375.002 395.002l-0.000976562 -142c-32 10 -68.5 18.5 -109.5 25.5s-84.5 10.5 -130.5 10.5c-32 0 -63.333 -2 -94 -6
c4 14.667 10.333 28.834 19 42.501s19.667 25.667 33 36s28.833 18.5 46.5 24.5s37.167 9 58.5 9c20.667 0 39.334 -2.33301 56.001 -7s31.167 -10.334 43.5 -17.001s22.833 -14 31.5 -22s15 -15 19 -21c0 -0.666992 0 1.5 0 6.5s-0.166992 11.167 -0.5 18.5
s-0.5 15 -0.5 23v19h28zM153.001 127.002c0 5.33301 -1.83301 9.33301 -5.5 12s-7.5 4 -11.5 4c-4.66699 0 -8.66699 -1.33301 -12 -4s-5 -6.66699 -5 -12s1.66699 -9.16602 5 -11.499s7.33301 -3.5 12 -3.5c4 0 7.83301 1.16699 11.5 3.5s5.5 6.16602 5.5 11.499z
M32.001 139.002c0 15.333 3 29.001 9 41.001s14 22 24 30s21.333 14 34 18s25.667 6 39 6s26.166 -1.83301 38.499 -5.5s23.333 -9.16699 33 -16.5s17.334 -16.666 23.001 -27.999s8.5 -25 8.5 -41v-116h106v202h28v-228h-189v26h29v119c0 20 -7.33301 35 -22 45
s-32.667 15 -54 15c-20 0 -38 -5.5 -54 -16.5s-24 -26.5 -24 -46.5v-107l58 58c-3.33301 1.33301 -7.66602 4.66602 -12.999 9.99902s-8 13 -8 23c0 12 3.66699 21.5 11 28.5s17 10.5 29 10.5c11.333 0 20.5 -3.83301 27.5 -11.5s10.5 -16.834 10.5 -27.501
c0 -9.33301 -1.83301 -16.5 -5.5 -21.5s-6.83398 -8.83301 -9.50098 -11.5l-17 -16.5l-33 -31.5l-22.5 -21l-24.5 -24h-32v138z" />
    <glyph glyph-name="space" unicode=" " horiz-adv-x="250" 
 />
    <glyph glyph-name="exclam" unicode="!" horiz-adv-x="205" 
d="M141 319l-13 -198h-53l-11 198v209h77v-209zM151 43c0 -13.333 -4.83301 -24.666 -14.5 -33.999s-21.167 -14 -34.5 -14s-24.833 4.66699 -34.5 14s-14.5 20.666 -14.5 33.999c0 14 4.66699 25.833 14 35.5s21 14.5 35 14.5s25.667 -4.83301 35 -14.5s14 -21.5 14 -35.5z
" />
    <glyph glyph-name="quotedbl" unicode="&#x22;" horiz-adv-x="201" 
d="M171 352h-48l-8 180h64zM76 352h-46l-8 180h64z" />
    <glyph glyph-name="numbersign" unicode="#" horiz-adv-x="423" 
d="M317 292l-13 -85h74v-62h-84l-24 -144h-61l23 144h-65l-22 -144h-61l20 144h-75v62h84l12 85h-78v62h86l21 134h64l-21 -134h66l20 134h64l-20 -134h67v-62h-77zM187 292l-12 -85h67l11 85h-66z" />
    <glyph glyph-name="dollar" unicode="$" horiz-adv-x="413" 
d="M372 155c0 -38 -11.8281 -70.834 -35.4951 -98.501s-52.5 -47.167 -86.5 -58.5v-83h-68v80c-34 4.66699 -62.833 17.5 -86.5 38.5s-43.834 52.5 -60.501 94.5l63 27c10.667 -28 23 -49.333 37 -64s29.667 -23.667 47 -27v193c-14.667 6.66699 -28.834 14 -42.501 22
s-25.834 17.167 -36.501 27.5s-19.167 22.333 -25.5 36s-9.5 29.834 -9.5 48.501c0 36.667 10.5 67.5 31.5 92.5s48.5 41.167 82.5 48.5v77h68v-80c19.333 -5.33301 37.666 -14.5 54.999 -27.5s33.666 -32.167 48.999 -57.5l-54 -43c-19.333 30.667 -36 49.667 -50 57v-158
c16 -8 31.333 -16.167 46 -24.5s27.667 -17.833 39 -28.5s20.333 -23.5 27 -38.5s10 -32.833 10 -53.5zM182.005 460.999c-13.333 -5.33301 -24.168 -14.333 -32.501 -27s-12.5 -26.667 -12.5 -42c0 -14 4.33301 -25.333 13 -34s19.334 -16.667 32.001 -24v127z
M303.003 157.999c0 14 -4.83301 26 -14.5 36s-22.5 19.667 -38.5 29v-151c16 9.33301 28.833 21.5 38.5 36.5s14.5 31.5 14.5 49.5z" />
    <glyph glyph-name="percent" unicode="%" horiz-adv-x="494" 
d="M245 417c0 -16 -3.1709 -31 -9.50391 -45s-14.666 -26.167 -24.999 -36.5s-22.666 -18.333 -36.999 -24s-29.5 -8.5 -45.5 -8.5s-31.167 2.83301 -45.5 8.5s-26.666 13.667 -36.999 24s-18.666 22.5 -24.999 36.5s-9.5 29 -9.5 45c0 16.667 3 32.167 9 46.5
s14.333 26.666 25 36.999s23.167 18.333 37.5 24s29.5 8.5 45.5 8.5s31.167 -2.83301 45.5 -8.5s26.833 -13.667 37.5 -24s19 -22.666 25 -36.999s9 -29.833 9 -46.5zM118.996 -19l-52 32l305 532l56 -26zM481.996 110c0 -16.667 -3.16699 -32 -9.5 -46
s-14.666 -26 -24.999 -36s-22.666 -17.833 -36.999 -23.5s-29.5 -8.5 -45.5 -8.5s-31.167 2.83301 -45.5 8.5s-26.833 13.5 -37.5 23.5s-19.167 22 -25.5 36s-9.5 29.333 -9.5 46s3.16699 32 9.5 46s14.833 26.167 25.5 36.5s23.167 18.333 37.5 24s29.5 8.5 45.5 8.5
s31.167 -2.83301 45.5 -8.5s26.666 -13.667 36.999 -24s18.666 -22.5 24.999 -36.5s9.5 -29.333 9.5 -46zM179.996 417c0 14 -5 26.001 -15 36.001s-22.333 15 -37 15c-14 0 -26 -4.83301 -36 -14.5s-15 -21.834 -15 -36.501c0 -13.333 5 -25 15 -35s22 -15 36 -15
s26.167 5 36.5 15s15.5 21.667 15.5 35zM416.996 110.001c0 14.667 -5.16699 26.834 -15.5 36.501s-22.5 14.5 -36.5 14.5c-14.667 0 -27 -4.83301 -37 -14.5s-15 -21.834 -15 -36.501c0 -14 5 -25.833 15 -35.5s22.333 -14.5 37 -14.5c14 0 26.167 4.83301 36.5 14.5
s15.5 21.5 15.5 35.5z" />
    <glyph glyph-name="ampersand" unicode="&#x26;" horiz-adv-x="521" 
d="M451 -2l-76.9971 87.0039c-24 -24 -50.333 -45.5 -79 -64.5s-59 -29.833 -91 -32.5c-20 -2 -39.167 0.166992 -57.5 6.5s-34.666 15.666 -48.999 27.999s-26 27.166 -35 44.499s-14.5 36 -16.5 56c-2 22 0.333008 42.333 7 61s16 36 28 52s25.833 30.833 41.5 44.5
s31.167 26.5 46.5 38.5c-13.333 14 -25.166 29 -35.499 45s-16.166 33.667 -17.499 53c-1.33301 15.333 0.5 30.166 5.5 44.499s12.167 27.166 21.5 38.499s20.666 20.5 33.999 27.5s27.666 11.167 42.999 12.5c16 1.33301 30.833 -0.5 44.5 -5.5s25.667 -12.167 36 -21.5
s18.666 -20.333 24.999 -33s10.166 -26.334 11.499 -41.001c1.33301 -15.333 0.166016 -29.166 -3.50098 -41.499s-8.83398 -23.833 -15.501 -34.5s-14.667 -20.667 -24 -30s-19 -18.333 -29 -27l108 -122l56 65l55 -41l-65 -75l115 -133zM268.003 433.004
c-1.33301 12 -6.16699 21.8301 -14.5 29.4971s-18.166 11.167 -29.499 10.5c-10.667 -1.33301 -20 -7.16602 -28 -17.499s-11.333 -22.166 -10 -35.499c1.33301 -11.333 5.66602 -22.166 12.999 -32.499s14.666 -19.833 21.999 -28.5c11.333 10 22.333 20.667 33 32
s15.334 25.333 14.001 42zM214.002 265.001l-33.0029 -26c-12 -9.33301 -23.167 -19.5 -33.5 -30.5s-18.666 -22.833 -24.999 -35.5s-8.83301 -26.334 -7.5 -41.001c2.66699 -23.333 11.834 -42.666 27.501 -57.999s34.167 -22 55.5 -20c22 2 43.833 11.167 65.5 27.5
s42.834 34.833 63.501 55.5z" />
    <glyph glyph-name="quotesingle" unicode="'" horiz-adv-x="142" 
d="M93 352h-46l-8 180h64z" />
    <glyph glyph-name="parenleft" unicode="(" horiz-adv-x="205" 
d="M188 539c-32 -46.667 -56.501 -96.666 -73.501 -149.999s-25.5 -108.333 -25.5 -165c0 -30 1.83301 -57.667 5.5 -83s9.33398 -50.5 17.001 -75.5s17.5 -50.833 29.5 -77.5s26.333 -56.334 43 -89.001l-65 -2c-32 52 -56.667 105.667 -74 161s-26 111.333 -26 168
c0 56 9 110 27 162s42.333 103 73 153z" />
    <glyph glyph-name="parenright" unicode=")" horiz-adv-x="205" 
d="M186 226c0 -26 -2.16895 -53.3311 -6.50195 -81.998s-10.666 -57.334 -18.999 -86.001s-18.666 -56.667 -30.999 -84s-26.5 -53 -42.5 -77h-66c16.667 32 31 61.5 43 88.5s22 53.167 30 78.5s13.833 51 17.5 77s5.5 53.667 5.5 83c0 56.667 -9 112 -27 166
s-42 104.333 -72 151h69c30 -50 54 -101.333 72 -154s27 -106.334 27 -161.001z" />
    <glyph glyph-name="asterisk" unicode="*" horiz-adv-x="352" 
d="M226 382l58.999 -77.999l-54 -42l-53 77c-3.33301 -4.66699 -5.66602 -7.83398 -6.99902 -9.50098l-6.5 -8.5l-14 -18.5l-29.5 -39.5l-53 41l59 78l-93 28l22 64l90 -31l-4 97h68l-3 -97l90 31l22 -64z" />
    <glyph glyph-name="plus" unicode="+" horiz-adv-x="390" 
d="M227 158v-145h-63v145h-146v63h145v146h63v-146h146v-63h-145z" />
    <glyph glyph-name="comma" unicode="," horiz-adv-x="148" 
d="M131 29c0 -18.667 -6.83398 -38 -20.501 -58s-34.5 -38.667 -62.5 -56l-34 34c13.333 8.66699 23.833 16.5 31.5 23.5s14.167 14.167 19.5 21.5c-11.333 1.33301 -21.166 6.5 -29.499 15.5s-12.5 19.5 -12.5 31.5c0 13.333 4.83301 25 14.5 35s21.834 15 36.501 15
c19.333 0 33.666 -6.66699 42.999 -20s14 -27.333 14 -42z" />
    <glyph glyph-name="hyphen" unicode="-" horiz-adv-x="266" 
d="M26 159v63h215v-63h-215z" />
    <glyph glyph-name="period" unicode="." horiz-adv-x="148" 
d="M123 41c0 -14 -4.83301 -25.667 -14.5 -35s-21.167 -14 -34.5 -14s-24.833 4.66699 -34.5 14s-14.5 20.666 -14.5 33.999c0 14 4.83301 25.667 14.5 35s21.167 14 34.5 14s24.833 -4.66699 34.5 -14s14.5 -20.666 14.5 -33.999z" />
    <glyph glyph-name="slash" unicode="/" horiz-adv-x="458" 
d="M101 0h-72l324 588h69z" />
    <glyph glyph-name="zero" unicode="0" horiz-adv-x="410" 
d="M393 267c0 -34 -3.99902 -67.333 -11.999 -100s-19.667 -62 -35 -88s-34.833 -46.833 -58.5 -62.5s-50.834 -23.5 -81.501 -23.5s-57.667 7.83301 -81 23.5s-42.833 36.5 -58.5 62.5s-27.5 55.333 -35.5 88s-12 66 -12 100s4 67.167 12 99.5s19.833 61 35.5 86
s35.167 45 58.5 60s50.333 22.5 81 22.5c30 0 56.667 -7.5 80 -22.5s43 -35 59 -60s28 -53.667 36 -86s12 -65.5 12 -99.5zM321.001 267c0 26 -2.83301 51.167 -8.5 75.5s-13.667 45.833 -24 64.5s-22.5 33.5 -36.5 44.5s-29.333 16.5 -46 16.5
c-17.333 0 -33 -5.5 -47 -16.5s-26.167 -25.833 -36.5 -44.5s-18.333 -40.167 -24 -64.5s-8.5 -49.5 -8.5 -75.5c0 -29.333 2.83301 -56.666 8.5 -81.999s13.667 -47.333 24 -66s22.5 -33.334 36.5 -44.001s29.667 -16 47 -16c16.667 0 32 5.33301 46 16
s26.167 25.334 36.5 44.001s18.333 40.667 24 66s8.5 52.666 8.5 81.999z" />
    <glyph glyph-name="one" unicode="1" horiz-adv-x="410" 
d="M184 -1v461h-95v68h164v-529h-69z" />
    <glyph glyph-name="two" unicode="2" horiz-adv-x="410" 
d="M372 372c0 -18 -3.00098 -35.3311 -9.00098 -51.998s-13.833 -32.5 -23.5 -47.5s-20.167 -29.167 -31.5 -42.5s-22.333 -25.333 -33 -36l-125 -129h220v-65h-329v51l178 182c10 10 20 20.833 30 32.5s19 23.667 27 36s14.5 24.666 19.5 36.999s7.5 24.166 7.5 35.499
c0 13.333 -2.5 25.833 -7.5 37.5s-12 21.667 -21 30s-19.333 15 -31 20s-23.834 7.5 -36.501 7.5c-28 0 -51 -9.5 -69 -28.5s-27 -48.5 -27 -88.5h-70c0.666992 30.667 5.83398 57.5 15.501 80.5s22.167 42.167 37.5 57.5s32.833 26.666 52.5 33.999s39.834 11 60.501 11
c22.667 0 44 -4.16699 64 -12.5s37.5 -19.666 52.5 -33.999s26.833 -31.5 35.5 -51.5s13 -41.667 13 -65z" />
    <glyph glyph-name="three" unicode="3" horiz-adv-x="410" 
d="M365 156c0 -23.333 -3.66699 -44.832 -11 -64.499s-18 -36.834 -32 -51.501s-31 -26.167 -51 -34.5s-42.333 -12.5 -67 -12.5c-20 0 -39.5 3.5 -58.5 10.5s-35.667 17.333 -50 31s-26 30.834 -35 51.501s-13.5 44.667 -13.5 72h67c1.33301 -32.667 10 -57.334 26 -74.001
s37 -25 63 -25c28 0 50.167 9.16699 66.5 27.5s24.5 40.833 24.5 67.5c0 23.333 -7.66699 43 -23 59s-39 25.667 -71 29v63c30 3.33301 52 13 66 29s21 35 21 57c0 23.333 -7.5 42 -22.5 56s-33.167 21 -54.5 21s-39.5 -7.16699 -54.5 -21.5s-22.5 -38.5 -22.5 -72.5h-70
c0 54 13.667 94.333 41 121s63 40 107 40c20 0 38.833 -3.5 56.5 -10.5s33.167 -16.833 46.5 -29.5s23.833 -28 31.5 -46s11.5 -37.667 11.5 -59c0 -46 -18.667 -84 -56 -114c20.667 -14.667 36.5 -32.5 47.5 -53.5s16.5 -43.167 16.5 -66.5z" />
    <glyph glyph-name="four" unicode="4" horiz-adv-x="410" 
d="M331 93v-93h-70v93h-244v57l258 378h56v-367h59v-68h-59zM261 389l-158 -228h158v228z" />
    <glyph glyph-name="five" unicode="5" horiz-adv-x="410" 
d="M386 185c0 -28 -5.16797 -53.8291 -15.501 -77.4961s-24.166 -44 -41.499 -61s-38 -30.333 -62 -40s-49.333 -14.5 -76 -14.5c-32 0 -63.167 8.66699 -93.5 26s-56.166 45.333 -77.499 84l62 28c16.667 -26 34.334 -44.333 53.001 -55s37.667 -16 57 -16
c17.333 0 33.666 3.16699 48.999 9.5s28.5 15.166 39.5 26.499s19.667 24.666 26 39.999s9.5 32.333 9.5 51c0 16.667 -3.33301 32.167 -10 46.5s-15.5 26.833 -26.5 37.5s-23.833 19 -38.5 25s-30.334 9 -47.001 9c-18.667 0 -37.834 -3.83301 -57.501 -11.5
s-42.167 -18.834 -67.5 -33.501v270h271v-68h-200v-100c18.667 6 39 9 61 9c26 0 50.333 -4.83301 73 -14.5s42.334 -22.834 59.001 -39.501s29.667 -36.167 39 -58.5s14 -46.5 14 -72.5z" />
    <glyph glyph-name="six" unicode="6" horiz-adv-x="410" 
d="M389 183c0 -24.667 -4.83301 -48.168 -14.5 -70.501s-22.167 -42.166 -37.5 -59.499c-35.333 -40 -79.333 -60 -132 -60c-25.333 0 -49.166 5 -71.499 15s-41.833 23.5 -58.5 40.5s-29.834 37 -39.501 60s-14.5 47.833 -14.5 74.5c0 23.333 3.33301 44.5 10 63.5
s15.667 37.5 27 55.5l151 227h85l-103 -154c2.66699 0 5.33398 0.166992 8.00098 0.5s5.66699 0.5 9 0.5c25.333 0 49 -5.16699 71 -15.5s41.167 -24.333 57.5 -42s29.166 -38.167 38.499 -61.5s14 -48 14 -74zM318 183.999c0 17.333 -3 33.5 -9 48.5s-14.333 28 -25 39
s-22.834 19.667 -36.501 26s-27.834 9.5 -42.501 9.5c-15.333 0 -29.666 -3.16699 -42.999 -9.5s-25.166 -15 -35.499 -26s-18.5 -24 -24.5 -39s-9 -31.167 -9 -48.5s3 -33.666 9 -48.999s14.167 -28.5 24.5 -39.5s22.166 -19.667 35.499 -26s27.666 -9.5 42.999 -9.5
c14.667 0 28.834 3.16699 42.501 9.5s25.834 15 36.501 26s19 24.167 25 39.5s9 31.666 9 48.999z" />
    <glyph glyph-name="seven" unicode="7" horiz-adv-x="410" 
d="M125 0h-80l260 460h-273v68h354v-65z" />
    <glyph glyph-name="eight" unicode="8" horiz-adv-x="410" 
d="M367 147c0 -22.667 -4.32812 -43.334 -12.9951 -62.001s-20.334 -34.834 -35.001 -48.501s-31.667 -24.334 -51 -32.001s-40 -11.5 -62 -11.5c-21.333 0 -41.666 3.83301 -60.999 11.5s-36.333 18.334 -51 32.001s-26.334 29.834 -35.001 48.501s-13 39.334 -13 62.001
c0 26.667 5.16699 50.834 15.5 72.501s26.166 40.167 47.499 55.5c-17.333 15.333 -30.333 32.5 -39 51.5s-13 38.833 -13 59.5s3.83301 40.167 11.5 58.5s18.167 34.166 31.5 47.499s29 23.833 47 31.5s37.667 11.5 59 11.5s41.166 -3.83301 59.499 -11.5
s34.166 -18.167 47.499 -31.5s23.833 -29.166 31.5 -47.499s11.5 -37.833 11.5 -58.5s-4.33301 -40.5 -13 -59.5s-21.667 -36.167 -39 -51.5c21.333 -15.333 37.166 -33.833 47.499 -55.5s15.5 -45.834 15.5 -72.501zM286.005 387c0 10.667 -2.16602 21 -6.49902 31
s-10.166 18.667 -17.499 26s-15.833 13.166 -25.5 17.499s-19.834 6.5 -30.501 6.5s-20.834 -2.16699 -30.501 -6.5s-18 -10.166 -25 -17.499s-12.667 -16 -17 -26s-6.5 -20.333 -6.5 -31c0 -22.667 7.66699 -41.667 23 -57s34 -23 56 -23s40.833 7.83301 56.5 23.5
s23.5 34.5 23.5 56.5zM298.006 150c0 12 -2.49902 23.5 -7.49902 34.5s-11.667 20.5 -20 28.5s-18 14.333 -29 19s-22.833 7 -35.5 7c-24.667 0 -46 -8.66699 -64 -26s-27 -38.333 -27 -63c0 -12.667 2.5 -24.5 7.5 -35.5s11.667 -20.667 20 -29s18 -14.833 29 -19.5
s22.5 -7 34.5 -7s23.667 2.33301 35 7s21.166 11.167 29.499 19.5s15 18 20 29s7.5 22.833 7.5 35.5z" />
    <glyph glyph-name="nine" unicode="9" horiz-adv-x="410" 
d="M390 342c0 -22.667 -3.5 -43.3311 -10.5 -61.998s-16.167 -36.667 -27.5 -54l-148 -226h-85l104 155c-3.33301 -0.666992 -6.66602 -1 -9.99902 -1h-10c-24.667 0 -48 5.16699 -70 15.5s-41.167 24.166 -57.5 41.499s-29.333 37.5 -39 60.5s-14.5 47.5 -14.5 73.5
c0 26.667 5 51.667 15 75s23.333 43.5 40 60.5s36.167 30.333 58.5 40s46.166 14.5 71.499 14.5c26 0 50 -5 72 -15s41.333 -23.667 58 -41s29.667 -37.833 39 -61.5s14 -48.834 14 -75.501zM317 345.003c0 16.667 -3 32.5 -9 47.5s-14 28 -24 39s-21.667 19.667 -35 26
s-27.333 9.5 -42 9.5c-15.333 0 -29.666 -3.16699 -42.999 -9.5s-25.333 -15 -36 -26s-19 -24 -25 -39s-9 -30.833 -9 -47.5c0 -17.333 3 -33.5 9 -48.5s14.333 -28 25 -39s22.667 -19.667 36 -26s27.666 -9.5 42.999 -9.5c14.667 0 28.667 3.16699 42 9.5s25 15 35 26
s18 24 24 39s9 31.167 9 48.5z" />
    <glyph glyph-name="colon" unicode=":" horiz-adv-x="148" 
d="M123 309c0 -14 -4.83301 -25.667 -14.5 -35s-21.167 -14 -34.5 -14s-24.833 4.66699 -34.5 14s-14.5 20.666 -14.5 33.999c0 14 4.83301 25.667 14.5 35s21.167 14 34.5 14s24.833 -4.66699 34.5 -14s14.5 -20.666 14.5 -33.999zM123 42
c0 -14 -4.83301 -25.666 -14.5 -34.999s-21.167 -14 -34.5 -14s-24.833 4.66699 -34.5 14s-14.5 20.666 -14.5 33.999c0 14 4.83301 25.667 14.5 35s21.167 14 34.5 14s24.833 -4.66699 34.5 -14s14.5 -21 14.5 -35v1z" />
    <glyph glyph-name="semicolon" unicode=";" horiz-adv-x="148" 
d="M123 308c0 -13.333 -4.83301 -24.833 -14.5 -34.5s-21.167 -14.5 -34.5 -14.5s-24.666 4.83301 -33.999 14.5s-14 21.167 -14 34.5s4.66699 24.833 14 34.5s20.666 14.5 33.999 14.5s24.833 -4.83301 34.5 -14.5s14.5 -21.167 14.5 -34.5zM131 28
c0 -18.667 -6.83203 -38 -20.499 -58s-34.5 -38.667 -62.5 -56l-34 34c13.333 8.66699 24 16.5 32 23.5s14.667 14.167 20 21.5c-12 1.33301 -22 6.5 -30 15.5s-12 19.5 -12 31.5c0 13.333 4.66699 25 14 35s21.333 15 36 15c19.333 0 33.666 -6.66699 42.999 -20
s14 -27.333 14 -42z" />
    <glyph glyph-name="less" unicode="&#x3c;" horiz-adv-x="391" 
d="M23 165v58l345 171v-68l-261 -132l261 -141v-67z" />
    <glyph glyph-name="equal" unicode="=" horiz-adv-x="398" 
d="M22 215v63h354v-63h-354zM22 102v63h354v-63h-354z" />
    <glyph glyph-name="greater" unicode="&#x3e;" horiz-adv-x="391" 
d="M23 -14v67l261 141l-261 132v68l345 -171v-58z" />
    <glyph glyph-name="question" unicode="?" horiz-adv-x="342" 
d="M321 399c0 -26 -6 -47.832 -18 -65.499s-25 -33.334 -39 -47.001l-39 -39.5c-12 -12.667 -18 -27.334 -18 -44.001v-79h-68v81c0 24 5.83301 44 17.5 60s24.667 30.833 39 44.5s27.333 27.334 39 41.001s17.5 30.167 17.5 49.5c0 18 -6.83301 34.833 -20.5 50.5
s-34.834 23.5 -63.501 23.5c-30.667 0 -53.667 -10 -69 -30s-19.666 -48 -12.999 -84h-69c-5.33301 26.667 -4.83301 51 1.5 73s16.5 41 30.5 57s31.333 28.5 52 37.5s43 13.5 67 13.5c23.333 0 44.5 -3.83301 63.5 -11.5s35.167 -18 48.5 -31s23.5 -28.167 30.5 -45.5
s10.5 -35.333 10.5 -54zM222 42.001c0 -14 -4.66699 -25.833 -14 -35.5s-21 -14.5 -35 -14.5s-25.667 4.83301 -35 14.5s-14 21.5 -14 35.5s4.66699 25.667 14 35s21 14 35 14c13.333 0 24.833 -4.66699 34.5 -14s14.5 -21 14.5 -35z" />
    <glyph glyph-name="at" unicode="@" horiz-adv-x="552" 
d="M552 121c-28.667 -44 -64.666 -76.1719 -107.999 -96.5049s-89 -30.5 -137 -30.5c-38.667 0 -75.834 6.16699 -111.501 18.5s-67 30.166 -94 53.499s-48.667 51.833 -65 85.5s-24.5 71.834 -24.5 114.501c0 36.667 7.33301 71.334 22 104.001s34.5 61.167 59.5 85.5
s54 43.5 87 57.5s68.167 21 105.5 21c34.667 0 67.5 -5.66699 98.5 -17s58 -27 81 -47s41.167 -44 54.5 -72s20 -58.333 20 -91c0 -28 -5.16699 -54.5 -15.5 -79.5s-23.833 -46.667 -40.5 -65s-35.334 -33 -56.001 -44s-41.334 -16.5 -62.001 -16.5
c-21.333 0 -35.666 4.66699 -42.999 14s-11.666 18 -12.999 26c-15.333 -9.33301 -29.833 -16 -43.5 -20s-27.167 -6 -40.5 -6c-32.667 0 -57.667 10.167 -75 30.5s-26 45.5 -26 75.5c0 22 3.66699 44.667 11 68s18.333 44.5 33 63.5s32.667 34.667 54 47
s45.666 18.5 72.999 18.5c13.333 0 26.166 -2.33301 38.499 -7s24.5 -12.667 36.5 -24l6 18h55l-70 -210c-0.666992 -1.33301 -1.66699 -4.5 -3 -9.5s-2 -10.167 -2 -15.5s1.33301 -10.166 4 -14.499s7.66699 -6.5 15 -6.5c12 0 24.833 5 38.5 15s26 22.667 37 38
s20.167 32.333 27.5 51s11 37 11 55c0 26.667 -5.66699 50.834 -17 72.501s-26.5 40.167 -45.5 55.5s-40.667 27.333 -65 36s-49.166 13 -74.499 13c-31.333 0 -60.666 -6.16699 -87.999 -18.5s-51.166 -28.666 -71.499 -48.999s-36.5 -44.166 -48.5 -71.499
s-18 -56 -18 -86c0 -34 6.83301 -64.667 20.5 -92s32 -50.5 55 -69.5s49.167 -33.5 78.5 -43.5s60 -15 92 -15c34 0 66.667 6.16699 98 18.5s58.666 32.5 81.999 60.5zM348.001 314.995c0.666992 4 0.166016 9.00098 -1.50098 15.001s-4.83398 11.833 -9.50098 17.5
s-11 10.667 -19 15s-17.333 6.5 -28 6.5c-15.333 0 -29.666 -4.5 -42.999 -13.5s-25.333 -20.5 -36 -34.5s-19 -29.333 -25 -46s-9 -33 -9 -49c0 -17.333 4.16699 -31.833 12.5 -43.5s24.166 -17.5 47.499 -17.5c8.66699 0 17.5 2.16699 26.5 6.5s17.333 9.66602 25 15.999
s14.334 13.5 20.001 21.5s9.83398 16 12.501 24z" />
    <glyph glyph-name="A" unicode="A" horiz-adv-x="465" 
d="M391 0l-65 162h-187l-65 -162h-74l213 528h41l211 -528h-74zM233 396l-68 -166h134z" />
    <glyph glyph-name="B" unicode="B" horiz-adv-x="380" 
d="M366 155c0 -27.333 -4.83398 -50.666 -14.501 -69.999s-22.667 -35.333 -39 -48s-35.333 -22 -57 -28s-44.167 -9 -67.5 -9h-149v528h121c48 0 87 -11.667 117 -35s45 -61.333 45 -114c0 -19.333 -2.66699 -36.5 -8 -51.5s-14.666 -28.833 -27.999 -41.5
c25.333 -13.333 45 -31.333 59 -54s21 -48.334 21 -77.001zM251.999 384c0 30 -9.16699 50.335 -27.5 61.002s-43.833 16 -76.5 16h-40v-155h40c14.667 0 28.334 0.833008 41.001 2.5s23.667 5.16699 33 10.5s16.666 13.166 21.999 23.499s8 24.166 8 41.499z
M295.999 154.002c0 15.333 -3.49902 29.333 -10.499 42s-16.5 22 -28.5 28c-12.667 6.66699 -27.5 10.667 -44.5 12s-33.833 2 -50.5 2h-54v-172h61c18 0 34.833 1.33301 50.5 4s29.167 7.5 40.5 14.5s20.166 16 26.499 27s9.5 25.167 9.5 42.5z" />
    <glyph glyph-name="C" unicode="C" horiz-adv-x="467" 
d="M454 51c-30 -22 -58.167 -37.168 -84.5 -45.501s-54.833 -12.5 -85.5 -12.5c-36.667 0 -71.5 7.16699 -104.5 21.5s-62 33.666 -87 57.999s-44.833 52.833 -59.5 85.5s-22 67.667 -22 105s7.33301 72.5 22 105.5s34.5 61.833 59.5 86.5s54 44.167 87 58.5
s68.167 21.5 105.5 21.5c28 0 55.667 -4.16699 83 -12.5s56 -23.833 86 -46.5l-37 -55c-26.667 20 -50.834 32.833 -72.501 38.5s-42.167 8.5 -61.5 8.5c-27.333 0 -53.333 -5.66699 -78 -17s-46.167 -26.5 -64.5 -45.5s-32.833 -41 -43.5 -66s-16 -51.5 -16 -79.5
c0 -26 5.5 -51.167 16.5 -75.5s25.833 -45.666 44.5 -63.999s40.167 -33.166 64.5 -44.499s49.833 -17 76.5 -17c19.333 0 39.833 3 61.5 9s45.834 19 72.501 39z" />
    <glyph glyph-name="D" unicode="D" horiz-adv-x="434" 
d="M424 263c0 -40.667 -7.00098 -77.167 -21.001 -109.5s-33.333 -59.833 -58 -82.5s-54 -40.167 -88 -52.5s-70.667 -18.5 -110 -18.5h-107v528h107c40 0 77 -6.16699 111 -18.5s63.333 -29.833 88 -52.5s43.834 -50.5 57.501 -83.5s20.5 -69.833 20.5 -110.5zM353.999 263
c0 30 -5.16797 57.333 -15.501 82s-24.666 45.5 -42.999 62.5s-40.166 30.167 -65.499 39.5s-53.333 14 -84 14h-37v-395h37c30 0 57.833 4.66699 83.5 14s47.667 22.5 66 39.5s32.666 37.667 42.999 62s15.5 51.5 15.5 81.5z" />
    <glyph glyph-name="E" unicode="E" horiz-adv-x="337" 
d="M39 0v528h272v-67h-203v-141h197v-67h-197v-187h203v-66h-272z" />
    <glyph glyph-name="F" unicode="F" horiz-adv-x="294" 
d="M109 461v-141h166v-67h-166v-253h-70v528h240v-67h-170z" />
    <glyph glyph-name="G" unicode="G" horiz-adv-x="573" 
d="M559 264c0 -37.333 -6.66699 -72.5 -20 -105.5s-31.833 -61.667 -55.5 -86s-51.834 -43.666 -84.501 -57.999s-68.334 -21.5 -107.001 -21.5c-38 0 -73.833 7 -107.5 21s-63 33.333 -88 58s-44.833 53.5 -59.5 86.5s-22 68.167 -22 105.5s7.33301 72.5 22 105.5
s34.5 61.667 59.5 86s54.333 43.666 88 57.999s69.5 21.5 107.5 21.5c48 0 92.333 -11.333 133 -34s76.334 -56 107.001 -100l-56 -42c-49.333 71.333 -110.666 107 -183.999 107c-28.667 0 -55.5 -5.33301 -80.5 -16s-46.833 -25 -65.5 -43s-33.5 -39.333 -44.5 -64
s-16.5 -51 -16.5 -79s5.5 -54.333 16.5 -79s25.833 -46 44.5 -64s40.5 -32.333 65.5 -43s51.833 -16 80.5 -16c24.667 0 48 4.16699 70 12.5s41.5 20 58.5 35s31.167 32.667 42.5 53s19 42.5 23 66.5h-215v70h287c0.666992 -12 1 -20 1 -24v-11z" />
    <glyph glyph-name="H" unicode="H" horiz-adv-x="474" 
d="M366 0v252h-258v-252h-69v528h69v-208h258v208h69v-528h-69z" />
    <glyph glyph-name="I" unicode="I" horiz-adv-x="157" 
d="M43 0v528h71v-528h-71z" />
    <glyph glyph-name="J" unicode="J" horiz-adv-x="153" 
d="M114 -19c0 -15.333 -2.83594 -29.667 -8.50293 -43s-13.5 -25 -23.5 -35s-21.667 -18 -35 -24s-27.666 -9 -42.999 -9s-29.666 3 -42.999 9s-25 14 -35 24l49 49c8.66699 -8 18.334 -12 29.001 -12c11.333 0 20.833 4 28.5 12s11.5 17.667 11.5 29v547h70v-547z" />
    <glyph glyph-name="K" unicode="K" horiz-adv-x="413" 
d="M327 0l-219 222v-222h-69v528h69v-202l204 202h96l-256 -254l272 -274h-97z" />
    <glyph glyph-name="L" unicode="L" horiz-adv-x="235" 
d="M40 0v528h69v-462h124v-66h-193z" />
    <glyph glyph-name="M" unicode="M" horiz-adv-x="613" 
d="M542 0l-66 340l-3 31l-10 -32l-135 -339h-40l-136 338l-10 34l-4 -33l-68 -339h-69l107 528h40l159 -397l159 397h40l106 -528h-70z" />
    <glyph glyph-name="N" unicode="N" horiz-adv-x="556" 
d="M517 0h-43l-366 402v-402h-69v528h43l366 -399v399h69v-528zM474 -3h43h-43z" />
    <glyph glyph-name="O" unicode="O" horiz-adv-x="572" 
d="M558 264c0 -37.333 -7.16699 -72.5 -21.5 -105.5s-34 -61.667 -59 -86s-54 -43.666 -87 -57.999s-67.833 -21.5 -104.5 -21.5c-37.333 0 -72.5 7.16699 -105.5 21.5s-61.833 33.666 -86.5 57.999s-44.167 53 -58.5 86s-21.5 68.167 -21.5 105.5
c0 36.667 7.16699 71.5 21.5 104.5s33.833 61.833 58.5 86.5s53.5 44.167 86.5 58.5s68.167 21.5 105.5 21.5c36.667 0 71.5 -7.16699 104.5 -21.5s62 -33.833 87 -58.5s44.667 -53.5 59 -86.5s21.5 -67.833 21.5 -104.5zM488 264c0 28 -5.33301 54.333 -16 79
s-25.334 46.167 -44.001 64.5s-40.167 33 -64.5 44s-50.166 16.5 -77.499 16.5s-53.333 -5.5 -78 -16.5s-46.167 -25.667 -64.5 -44s-32.833 -39.833 -43.5 -64.5s-16 -51 -16 -79s5.33301 -54.333 16 -79s25.167 -46.334 43.5 -65.001s39.833 -33.5 64.5 -44.5
s50.667 -16.5 78 -16.5s53.166 5.5 77.499 16.5s45.833 25.833 64.5 44.5s33.334 40.334 44.001 65.001s16 51 16 79z" />
    <glyph glyph-name="P" unicode="P" horiz-adv-x="316" 
d="M312 379c0 -19.333 -3.83301 -39.168 -11.5 -59.501s-19.5 -37.5 -35.5 -51.5c-18 -15.333 -37.833 -25.166 -59.5 -29.499s-42.167 -6.5 -61.5 -6.5h-36v-232h-69v528h105c19.333 0 39.333 -1.83301 60 -5.5s40 -13.167 58 -28.5c17.333 -14.667 30 -32 38 -52
s12 -41 12 -63zM243 380.998c0 13.333 -2.66797 25.667 -8.00098 37s-12.666 20 -21.999 26c-9.33301 7.33301 -19.833 12 -31.5 14s-25.167 3 -40.5 3h-33v-162h37c15.333 0 28.833 1.33301 40.5 4s22.5 8.66699 32.5 18c16.667 16 25 36 25 60z" />
    <glyph glyph-name="Q" unicode="Q" horiz-adv-x="571" 
d="M479 -1l-36.001 45.0029c-23.333 -16.667 -48.333 -29.334 -75 -38.001s-54 -13 -82 -13c-37.333 0 -72.5 7 -105.5 21s-61.833 33.333 -86.5 58s-44.167 53.334 -58.5 86.001s-21.5 68 -21.5 106c0 37.333 7.16699 72.5 21.5 105.5s34 61.667 59 86s54 43.666 87 57.999
s68.167 21.5 105.5 21.5c36.667 0 71.5 -7 104.5 -21s61.833 -33.333 86.5 -58s44.334 -53.334 59.001 -86.001s22 -67.334 22 -104.001c0 -66.667 -21.333 -125.667 -64 -177l80 -90h-96zM487.999 260.003c0 28.667 -5.16797 55.501 -15.501 80.501s-24.5 47 -42.5 66
s-39.333 34 -64 45s-51 16.5 -79 16.5c-27.333 0 -53.166 -5.5 -77.499 -16.5s-45.833 -25.667 -64.5 -44s-33.334 -39.833 -44.001 -64.5s-16 -51 -16 -79s5.33301 -54.5 16 -79.5s25.334 -46.833 44.001 -65.5s40.167 -33.334 64.5 -44.001s50.5 -16 78.5 -16
c18 0 36 3.33301 54 10s35.667 15.667 53 27l-94 97l53 46l91 -98c14 18.667 24.667 37.667 32 57s11 40 11 62z" />
    <glyph glyph-name="R" unicode="R" horiz-adv-x="361" 
d="M278 0l-154.999 228h-15v-228h-69v528h104c20 0 40.667 -1.33301 62 -4s42 -11 62 -25c20.667 -14.667 35.167 -32.5 43.5 -53.5s12.5 -43.167 12.5 -66.5c0 -42 -11.333 -74.833 -34 -98.5s-52.334 -38.5 -89.001 -44.5l161 -236h-83zM253.001 380
c0 15.333 -3.33301 29.5 -10 42.5s-16.667 22.5 -30 28.5c-9.33301 4.66699 -19.5 7.5 -30.5 8.5s-21.833 1.5 -32.5 1.5h-41l-1 -162h46c14.667 0 27.667 1.16699 39 3.5s22 7.83301 32 16.5c9.33301 7.33301 16.333 16.5 21 27.5s7 22.167 7 33.5z" />
    <glyph glyph-name="S" unicode="S" horiz-adv-x="368" 
d="M353 154c0 -23.333 -4.83496 -44.835 -14.502 -64.502s-22.5 -36.667 -38.5 -51s-34.5 -25.5 -55.5 -33.5s-42.5 -12 -64.5 -12c-38 0 -71.167 11.5 -99.5 34.5s-50.833 56.5 -67.5 100.5l62 29c14.667 -36 30.334 -61.333 47.001 -76s36.667 -22 60 -22
c13.333 0 26 2.5 38 7.5s22.667 12 32 21s16.666 19.5 21.999 31.5s8 24.667 8 38c0 10.667 -3 20.167 -9 28.5s-13.333 15.833 -22 22.5s-18.167 12.5 -28.5 17.5s-19.5 9.83301 -27.5 14.5l-52 26c-17.333 8.66699 -33.166 18.5 -47.499 29.5s-26 24.167 -35 39.5
s-13.5 34 -13.5 56c0 20.667 3.5 39.834 10.5 57.501s16.833 32.834 29.5 45.501s27.834 22.667 45.501 30s37.167 11 58.5 11c28 0 54.333 -7.16699 79 -21.5s46.667 -37.5 66 -69.5l-53 -43c-16.667 25.333 -32.167 42.833 -46.5 52.5s-30.166 14.5 -47.499 14.5
c-20.667 0 -38 -7.33301 -52 -22s-21 -32.667 -21 -54c0 -10 2.66699 -18.667 8 -26s12 -14 20 -20s16.5 -11.167 25.5 -15.5s17.167 -8.5 24.5 -12.5l93 -49c21.333 -13.333 37.666 -29.333 48.999 -48s17 -41 17 -67z" />
    <glyph glyph-name="T" unicode="T" horiz-adv-x="325" 
d="M197 461v-461h-69v461h-127v67h323v-67h-127z" />
    <glyph glyph-name="U" unicode="U" horiz-adv-x="448" 
d="M409 203l-0.000976562 -19c0 -6 -0.333008 -12 -1 -18c-0.666992 -19.333 -3.5 -37.833 -8.5 -55.5s-14.5 -35.167 -28.5 -52.5c-18 -21.333 -40.333 -37.666 -67 -48.999s-53.334 -17 -80.001 -17c-21.333 0 -42 3.16699 -62 9.5s-38.167 15.5 -54.5 27.5
s-30.166 26.5 -41.499 43.5s-19 36.167 -23 57.5c-2 11.333 -3.16699 23.166 -3.5 35.499s-0.5 24.833 -0.5 37.5v325h70v-315c0 -23.333 1 -44.5 3 -63.5s8.33301 -35.167 19 -48.5s24.667 -23.666 42 -30.999s34.333 -11 51 -11s34 3.66699 52 11s32 17.666 42 30.999
c10.667 13.333 16.834 29.5 18.501 48.5s2.5 40.167 2.5 63.5v315h70v-325z" />
    <glyph glyph-name="V" unicode="V" horiz-adv-x="408" 
d="M223 0h-40l-182 528h73l121 -354l9 -36l9 36l121 354h73z" />
    <glyph glyph-name="W" unicode="W" horiz-adv-x="751" 
d="M581 0h-40l-156 380l-10 33l-9 -33l-156 -380h-40l-169 528h72l115 -356l9 -38l11 37l150 357h39l148 -354l12 -39l10 40l112 353h72z" />
    <glyph glyph-name="X" unicode="X" horiz-adv-x="369" 
d="M290 0l-107 200l-105 -200h-78l144 269l-138 259h77l101 -187l99 187h78l-138 -259l145 -269h-78z" />
    <glyph glyph-name="Y" unicode="Y" horiz-adv-x="424" 
d="M248 223v-223h-72v223l-175 305h79l132 -230l132 230h79z" />
    <glyph glyph-name="Z" unicode="Z" horiz-adv-x="399" 
d="M105 66h268v-66h-354v56l267 405h-259v67h346v-55z" />
    <glyph glyph-name="bracketleft" unicode="[" horiz-adv-x="200" 
d="M28 -119v684h149v-66h-83v-551h83v-67h-149z" />
    <glyph glyph-name="backslash" unicode="\" horiz-adv-x="458" 
d="M357 0l-322 588h70l324 -588h-72z" />
    <glyph glyph-name="bracketright" unicode="]" horiz-adv-x="200" 
d="M23 -119v66h84v551h-84v67h149v-684h-149z" />
    <glyph glyph-name="asciicircum" unicode="^" horiz-adv-x="412" 
d="M339 194l-133 265l-131 -265h-69l173 351h55l173 -350z" />
    <glyph glyph-name="underscore" unicode="_" horiz-adv-x="379" 
d="M2 -94v61h375v-61h-375z" />
    <glyph glyph-name="grave" unicode="`" horiz-adv-x="204" 
d="M128 365l-109 129l77 26l85 -130z" />
    <glyph glyph-name="a" unicode="a" horiz-adv-x="428" 
d="M324 0l-0.00292969 36.001c-31.333 -28.667 -70.666 -43 -117.999 -43c-29.333 0 -55.666 5.16699 -78.999 15.5s-43.166 24.166 -59.499 41.499s-28.833 37.833 -37.5 61.5s-13 48.5 -13 74.5s4.33301 50.5 13 73.5s21.167 43 37.5 60s36 30.333 59 40
s48.833 14.5 77.5 14.5c46.667 0 86.667 -14 120 -42v35h66v-367h-66zM326.997 189.001c0 36 -11.167 65.5 -33.5 88.5s-52.5 34.5 -90.5 34.5c-17.333 0 -33.333 -3.5 -48 -10.5s-27.334 -16.333 -38.001 -28s-19 -25 -25 -40s-9 -30.833 -9 -47.5
c0 -18 2.83301 -34.833 8.5 -50.5s13.834 -29.5 24.501 -41.5s23.5 -21.5 38.5 -28.5s31.833 -10.5 50.5 -10.5c19.333 0 36.5 3.5 51.5 10.5s27.833 16.5 38.5 28.5s18.667 26.167 24 42.5s8 33.833 8 52.5z" />
    <glyph glyph-name="b" unicode="b" horiz-adv-x="429" 
d="M412 187c0 -26 -4.33105 -50.834 -12.998 -74.501s-21.334 -44.167 -38.001 -61.5s-36.667 -31.166 -60 -41.499s-49.333 -15.5 -78 -15.5c-21.333 0 -42.5 3.5 -63.5 10.5s-39.5 17.833 -55.5 32.5v-37h-67v596h67v-260c16.667 14 35.5 24.167 56.5 30.5
s42.167 9.5 63.5 9.5c28.667 0 54.667 -4.83301 78 -14.5s43.166 -23 59.499 -40s28.833 -37 37.5 -60s13 -47.833 13 -74.5zM346.002 186.999c0 16.667 -3.00098 32.667 -9.00098 48s-14.333 28.833 -25 40.5s-23.5 21 -38.5 28s-31.167 10.5 -48.5 10.5
c-40 0 -70.667 -12 -92 -36s-32 -54.333 -32 -91c0 -18 2.83301 -35 8.5 -51s13.667 -30 24 -42s23 -21.333 38 -28s32.167 -10 51.5 -10c18.667 0 35.667 3.5 51 10.5s28.333 16.5 39 28.5s18.834 25.833 24.501 41.5s8.5 32.5 8.5 50.5z" />
    <glyph glyph-name="c" unicode="c" horiz-adv-x="353" 
d="M345 35c-24 -16 -46.501 -27.1641 -67.501 -33.4971s-42.167 -9.5 -63.5 -9.5c-28 0 -54.167 5 -78.5 15s-45.166 23.667 -62.499 41s-31 37.666 -41 60.999s-15 48.333 -15 75s5 51.5 15 74.5s23.833 43 41.5 60s38.5 30.5 62.5 40.5s50 15 78 15
c21.333 0 42.5 -3 63.5 -9s43.5 -17.333 67.5 -34l-28 -58c-21.333 15.333 -39.833 25.833 -55.5 31.5s-31.834 8.5 -48.501 8.5c-18 0 -35 -3.5 -51 -10.5s-29.667 -16.333 -41 -28s-20.333 -25.334 -27 -41.001s-10 -32.167 -10 -49.5s3.33301 -33.833 10 -49.5
s15.667 -29.5 27 -41.5s25 -21.5 41 -28.5s33 -10.5 51 -10.5c16.667 0 32.834 2.66699 48.501 8s34.167 15.666 55.5 30.999z" />
    <glyph glyph-name="d" unicode="d" horiz-adv-x="429" 
d="M326 0v35.001c-16.667 -14 -35.5 -24.333 -56.5 -31s-41.833 -10 -62.5 -10c-29.333 0 -55.666 5.16699 -78.999 15.5s-43.333 24.166 -60 41.499s-29.334 37.833 -38.001 61.5s-13 48.5 -13 74.5c0 26.667 4.33301 51.5 13 74.5s21.167 43 37.5 60s36 30.333 59 40
s49.167 14.5 78.5 14.5c22 0 43.5 -3.5 64.5 -10.5s39.833 -17.5 56.5 -31.5v262h66v-596h-66zM328 191.001c0 36 -11.1641 65.501 -33.4971 88.501s-52.5 34.5 -90.5 34.5c-17.333 0 -33.333 -3.5 -48 -10.5s-27.334 -16.333 -38.001 -28s-19 -25.167 -25 -40.5
s-9 -31.333 -9 -48c0 -18 2.83301 -34.833 8.5 -50.5s13.834 -29.5 24.501 -41.5s23.5 -21.5 38.5 -28.5s31.833 -10.5 50.5 -10.5c19.333 0 36.666 3.5 51.999 10.5s28.166 16.667 38.499 29s18.166 26.666 23.499 42.999s8 33.833 8 52.5z" />
    <glyph glyph-name="e" unicode="e" horiz-adv-x="405" 
d="M84 165c3.33301 -34.667 16.333 -61.832 39 -81.499s51 -29.5 85 -29.5c46.667 0 86 27.333 118 82l57 -31c-22 -40 -47.833 -68.833 -77.5 -86.5s-63.5 -26.5 -101.5 -26.5c-28.667 0 -54.5 5.16699 -77.5 15.5s-42.667 24.333 -59 42s-28.833 38 -37.5 61
s-13 47.5 -13 73.5c0 25.333 4.33301 49.5 13 72.5s21.167 43.167 37.5 60.5s36 31.166 59 41.499s48.833 15.5 77.5 15.5s54.5 -5.33301 77.5 -16s42.333 -25.167 58 -43.5s27.667 -40.333 36 -66s12.5 -53.5 12.5 -83.5h-304zM318 226.002
c-7.33301 24.667 -21.168 45.167 -41.501 61.5s-44.5 24.5 -72.5 24.5s-52.667 -8.16699 -74 -24.5s-35.666 -36.833 -42.999 -61.5h231z" />
    <glyph glyph-name="f" unicode="f" horiz-adv-x="189" 
d="M111 303l-0.000976562 -302.999h-67v303h-39v62h39v97c0 12 0.666992 26.667 2 44s6 32.666 14 45.999c9.33301 16.667 22.5 29 39.5 37s34.5 12 52.5 12c6 0 12.833 -0.5 20.5 -1.5s16.167 -3.5 25.5 -7.5l-16 -56c-9.33301 2 -18.666 3 -27.999 3
c-12 0 -21 -2.5 -27 -7.5s-10.167 -11.333 -12.5 -19s-3.5 -16.167 -3.5 -25.5v-27v-95h88v-62h-88z" />
    <glyph glyph-name="g" unicode="g" horiz-adv-x="429" 
d="M392 39c0 -26 -1.66699 -53.666 -5 -82.999s-14.333 -56.333 -33 -81c-18 -24 -40.5 -41.833 -67.5 -53.5s-55.5 -17.5 -85.5 -17.5c-24 0 -47 3.5 -69 10.5s-41.667 17.667 -59 32s-31.5 32.5 -42.5 54.5s-17.5 48 -19.5 78h66c3.33301 -38 16.333 -66.5 39 -85.5
s50 -28.5 82 -28.5c27.333 0 49.5 4.66699 66.5 14s30 21.666 39 36.999s15 33 18 53s4.5 41 4.5 63c-36 -28.667 -77 -43 -123 -43c-28 0 -53.5 5.33301 -76.5 16s-42.5 24.834 -58.5 42.501s-28.5 38 -37.5 61s-13.5 47.167 -13.5 72.5c0 26 4.66699 50.667 14 74
s22.5 43.666 39.5 60.999s37.167 31 60.5 41s49 15 77 15c46 0 85.333 -14.333 118 -43v36h66v-326zM328 187.001c0 17.333 -2.99609 33.502 -8.99609 48.502s-14.333 28 -25 39s-23.834 19.667 -39.501 26s-32.834 9.5 -51.501 9.5c-17.333 0 -33.333 -3.5 -48 -10.5
s-27.167 -16.333 -37.5 -28s-18.5 -25.167 -24.5 -40.5s-9 -31.333 -9 -48c0 -18 2.83301 -35 8.5 -51s13.834 -30 24.501 -42s23.5 -21.5 38.5 -28.5s31.833 -10.5 50.5 -10.5c19.333 0 36.666 3.5 51.999 10.5s28.166 16.667 38.499 29s18.166 26.666 23.499 42.999
s8 34.166 8 53.499z" />
    <glyph glyph-name="h" unicode="h" horiz-adv-x="375" 
d="M338 0h-66.998v218c0 14.667 -0.833008 28 -2.5 40s-5 22 -10 30s-12.5 14.167 -22.5 18.5s-23.333 6.5 -40 6.5c-19.333 0 -35 -3.66699 -47 -11s-21.333 -17 -28 -29s-11.334 -26 -14.001 -42s-4 -32.667 -4 -50v-181h-66v597h66v-257c27.333 23.333 59.333 35 96 35
c27.333 0 50 -3.83301 68 -11.5s32.167 -18.5 42.5 -32.5s17.666 -30.667 21.999 -50s6.5 -40.333 6.5 -63v-218z" />
    <glyph glyph-name="i" unicode="i" horiz-adv-x="150" 
d="M123 490c0 -13.333 -4.66699 -24.5 -14 -33.5s-20.666 -13.5 -33.999 -13.5s-24.5 4.5 -33.5 13.5s-13.5 20.167 -13.5 33.5c0 12.667 4.5 23.667 13.5 33s20.167 14 33.5 14s24.666 -4.66699 33.999 -14s14 -20.333 14 -33zM41 0v365h68v-365h-68z" />
    <glyph glyph-name="j" unicode="j" horiz-adv-x="150" 
d="M123 490c0 -13.333 -4.66699 -24.5 -14 -33.5s-20.666 -13.5 -33.999 -13.5s-24.5 4.5 -33.5 13.5s-13.5 20.167 -13.5 33.5c0 12.667 4.5 23.667 13.5 33s20.167 14 33.5 14s24.666 -4.66699 33.999 -14s14 -20.333 14 -33zM41 -214v579h68v-579h-68z" />
    <glyph glyph-name="k" unicode="k" horiz-adv-x="345" 
d="M269 0l-160 162l-3 -3v-159h-67v597h67v-345l114 114h90l-156 -159l206 -207h-91z" />
    <glyph glyph-name="l" unicode="l" horiz-adv-x="150" 
d="M41 0v598h68v-598h-68z" />
    <glyph glyph-name="m" unicode="m" horiz-adv-x="556" 
d="M517 0l-67.9951 -0.00195312v224c0 28 -3.5 49.667 -10.5 65s-23.833 23 -50.5 23c-29.333 0 -49.5 -10.667 -60.5 -32s-16.5 -47.333 -16.5 -78v-202h-66v215c0 14.667 -0.833008 27.834 -2.5 39.501s-4.83398 21.834 -9.50098 30.501s-11.334 15.334 -20.001 20.001
s-19.667 7 -33 7c-12.667 0 -23.667 -3.83301 -33 -11.5s-17 -17.334 -23 -29.001s-10.5 -24.667 -13.5 -39s-4.5 -27.833 -4.5 -40.5v-192h-67v365h67l-1 -34c11.333 15.333 24.166 26.333 38.499 33s29.166 10 44.499 10c42 0 74 -16 96 -48
c14 17.333 29.833 29.666 47.5 36.999s36.5 11 56.5 11c26.667 0 48.5 -4.33301 65.5 -13s30.167 -20.167 39.5 -34.5s15.666 -30.666 18.999 -48.999s5 -37.5 5 -57.5v-220z" />
    <glyph glyph-name="n" unicode="n" horiz-adv-x="372" 
d="M266 0l-0.00195312 216c0 16.667 -0.833008 31 -2.5 43s-5 21.833 -10 29.5s-12.167 13.167 -21.5 16.5s-21.666 5 -36.999 5s-28.666 -4.16699 -39.999 -12.5s-20.666 -19 -27.999 -32s-12.833 -27 -16.5 -42s-5.5 -29.5 -5.5 -43.5v-180h-66v365h66v-37
c13.333 14 27.833 25 43.5 33s32.167 12 49.5 12c26.667 0 48.667 -3.83301 66 -11.5s31.166 -18.334 41.499 -32.001s17.5 -30.167 21.5 -49.5s6 -40.666 6 -63.999v-216h-67z" />
    <glyph glyph-name="o" unicode="o" horiz-adv-x="423" 
d="M406 185c0 -27.333 -5 -52.668 -15 -76.001s-23.833 -43.666 -41.5 -60.999s-38.334 -30.833 -62.001 -40.5s-49.5 -14.5 -77.5 -14.5c-26.667 0 -51.667 5 -75 15s-43.833 23.667 -61.5 41s-31.5 37.666 -41.5 60.999s-15 48 -15 74s5 50.667 15 74
s23.833 43.833 41.5 61.5s38.167 31.5 61.5 41.5s48.333 15 75 15c28 0 53.833 -4.83301 77.5 -14.5s44.334 -23.167 62.001 -40.5s31.5 -37.666 41.5 -60.999s15 -48.333 15 -75zM340 183.998c0 18.667 -3.33203 35.835 -9.99902 51.502s-16 29.167 -28 40.5
s-26 20.166 -42 26.499s-33.333 9.5 -52 9.5c-17.333 0 -33.5 -3.33301 -48.5 -10s-28 -15.834 -39 -27.501s-19.667 -25.334 -26 -41.001s-9.5 -32.167 -9.5 -49.5s3.16699 -33.666 9.5 -48.999s15.166 -28.833 26.499 -40.5s24.333 -21 39 -28s30.667 -10.5 48 -10.5
c18.667 0 36 3.33301 52 10s30 15.667 42 27s21.333 24.833 28 40.5s10 32.5 10 50.5z" />
    <glyph glyph-name="p" unicode="p" horiz-adv-x="422" 
d="M406 180c0 -26.667 -4.16504 -51.5 -12.498 -74.5s-20.5 -43 -36.5 -60s-35.333 -30.333 -58 -40s-48.334 -14.5 -77.001 -14.5c-20.667 0 -40.834 3.33301 -60.501 10s-38.167 17.667 -55.5 33v-249h-67v580h67v-34c17.333 15.333 35.833 26.166 55.5 32.499
s39.5 9.5 59.5 9.5c28.667 0 54.5 -5.16699 77.5 -15.5s42.5 -24.166 58.5 -41.499s28.167 -37.833 36.5 -61.5s12.5 -48.5 12.5 -74.5zM338.002 179c0 18 -2.83398 35 -8.50098 51s-13.5 30 -23.5 42s-22.167 21.667 -36.5 29s-30.166 11 -47.499 11
c-38 0 -67 -13.167 -87 -39.5s-30 -58.5 -30 -96.5c0 -36 10.667 -65.333 32 -88s50 -34 86 -34c16.667 0 32 3.33301 46 10s26.167 15.667 36.5 27s18.333 24.5 24 39.5s8.5 31.167 8.5 48.5z" />
    <glyph glyph-name="q" unicode="q" horiz-adv-x="422" 
d="M316 -214l0.000976562 246.997c-17.333 -15.333 -35.833 -26.166 -55.5 -32.499s-39.5 -9.5 -59.5 -9.5c-28.667 0 -54.334 4.83301 -77.001 14.5s-42 23 -58 40s-28.333 36.833 -37 59.5s-13 47.334 -13 74.001c0 26 4.33301 50.833 13 74.5s21 44.334 37 62.001
s35.5 31.667 58.5 42s48.833 15.5 77.5 15.5c19.333 0 38.833 -3.16699 58.5 -9.5s38.167 -16.833 55.5 -31.5v33h67v-579h-67zM318.001 178.997c0 18 -2.83496 35.001 -8.50195 51.001s-13.667 30 -24 42s-22.666 21.667 -36.999 29s-30.166 11 -47.499 11
c-18 0 -34.333 -3.5 -49 -10.5s-27 -16.667 -37 -29s-17.667 -26.833 -23 -43.5s-8 -34.334 -8 -53.001c0 -36 10.833 -65.333 32.5 -88s50.5 -34 86.5 -34c16.667 0 32 3.33301 46 10s26.167 15.667 36.5 27s18.333 24.5 24 39.5s8.5 31.167 8.5 48.5z" />
    <glyph glyph-name="r" unicode="r" horiz-adv-x="232" 
d="M202 295c-8.66699 4.66699 -14.833 7.33496 -18.5 8.00195s-6.16699 1 -7.5 1c-15.333 0 -27.5 -4 -36.5 -12s-16 -18.333 -21 -31s-8.33301 -26.334 -10 -41.001s-2.5 -28.334 -2.5 -41.001v-180h-67v366h67v-34c7.33301 10 17.5 19.333 30.5 28s26.167 13 39.5 13
c7.33301 0 15.333 -0.666992 24 -2s21 -5 37 -11z" />
    <glyph glyph-name="s" unicode="s" horiz-adv-x="285" 
d="M270 112c0 -18 -3.33496 -34.5 -10.002 -49.5s-15.667 -27.667 -27 -38s-24.666 -18.5 -39.999 -24.5s-31.666 -9 -48.999 -9c-32 0 -60.333 9.66699 -85 29s-42 48 -52 86l61 23c8.66699 -28 19.167 -47.5 31.5 -58.5s27.166 -16.5 44.499 -16.5
c16 0 29.833 5.66699 41.5 17s17.5 25.333 17.5 42c0 14.667 -4.66699 25.334 -14 32.001s-22.666 13 -39.999 19c-13.333 4.66699 -26.666 10 -39.999 16s-25.333 13.167 -36 21.5s-19.167 18.166 -25.5 29.499s-9.5 25 -9.5 41c0 15.333 3 29.333 9 42s14 23.5 24 32.5
s21.5 15.833 34.5 20.5s26.833 7 41.5 7c19.333 0 38.666 -5.5 57.999 -16.5s36.333 -30.5 51 -58.5l-57 -32c-10 18 -19.333 29.833 -28 35.5s-17 8.5 -25 8.5c-10.667 0 -20 -3.66699 -28 -11s-12 -15.666 -12 -24.999c0 -8 3.16699 -15 9.5 -21s13.833 -11 22.5 -15
s17.667 -7.5 27 -10.5s17 -5.83301 23 -8.5c25.333 -10.667 45.333 -23.834 60 -39.501s22 -38.5 22 -68.5z" />
    <glyph glyph-name="t" unicode="t" horiz-adv-x="215" 
d="M135 302v-302h-67v302h-54v63h54v132h67v-132h76v-63h-76z" />
    <glyph glyph-name="u" unicode="u" horiz-adv-x="372" 
d="M333 149c0 -23.333 -2.33008 -44.666 -6.99707 -63.999s-12.667 -36 -24 -50s-26.333 -24.833 -45 -32.5s-42.334 -11.5 -71.001 -11.5s-52.334 3.83301 -71.001 11.5s-33.667 18.5 -45 32.5s-19.333 30.667 -24 50s-7 40.666 -7 63.999v216h66v-216
c0 -32.667 5.16699 -56.667 15.5 -72s32.166 -23 65.499 -23c32.667 0 54.167 7.66699 64.5 23s15.5 39.333 15.5 72v216h67v-216z" />
    <glyph glyph-name="v" unicode="v" horiz-adv-x="365" 
d="M204 0h-41l-162 365h71l112 -250l108 250h72z" />
    <glyph glyph-name="w" unicode="w" horiz-adv-x="598" 
d="M442 0h-41l-102 242l-97 -242h-42l-159 365h72l108 -249l101 249h38l103 -249l105 249h69z" />
    <glyph glyph-name="x" unicode="x" horiz-adv-x="380" 
d="M299 0l-110 142l-110 -142h-81l149 193l-138 172h81l100 -123l96 123h84l-136 -172l148 -193h-83z" />
    <glyph glyph-name="y" unicode="y" horiz-adv-x="411" 
d="M162 -214h-71l87 205l-177 374h72l141 -294l125 294h71z" />
    <glyph glyph-name="z" unicode="z" horiz-adv-x="374" 
d="M29 0v55l220 248h-210v62h306v-52l-221 -251h221v-62h-316z" />
    <glyph glyph-name="braceleft" unicode="{" horiz-adv-x="206" 
d="M199 -119c-27.333 1.33301 -49.5029 4.83398 -66.5029 10.501s-30.167 14 -39.5 25s-15.833 24.333 -19.5 40s-5.5 34.167 -5.5 55.5v113c0 15.333 -4 28.5 -12 39.5s-20.667 23.167 -38 36.5v46c18 13.333 30.667 25 38 35s11 22.667 11 38v113
c0 21.333 1.83301 40 5.5 56s10.334 29.5 20.001 40.5s23 19.333 40 25s39.167 9.16699 66.5 10.5v-65c-25.333 -0.666992 -42.666 -3.33398 -51.999 -8.00098s-14 -15.334 -14 -32.001v-121c0 -31.333 -3.66699 -55.5 -11 -72.5s-17.666 -31.5 -30.999 -43.5
c13.333 -12 23.5 -26.833 30.5 -44.5s10.5 -42.5 10.5 -74.5v-119c0 -17.333 4.83301 -28.166 14.5 -32.499s27.167 -6.5 52.5 -6.5v-65z" />
    <glyph glyph-name="bar" unicode="|" horiz-adv-x="209" 
d="M71 -7v591h67v-591h-67z" />
    <glyph glyph-name="braceright" unicode="}" horiz-adv-x="206" 
d="M188 201c-17.333 -13.333 -29.8291 -25.502 -37.4961 -36.502s-11.5 -24.167 -11.5 -39.5v-113c0 -21.333 -1.83301 -39.833 -5.5 -55.5s-10.334 -29 -20.001 -40s-23.167 -19.333 -40.5 -25s-39.333 -9.16699 -66 -10.5v64c25.333 0 42.666 2.33301 51.999 7
s14 15.667 14 33v119c0 32 3.66699 56.833 11 74.5s17.666 32.5 30.999 44.5c-13.333 12 -23.5 26.5 -30.5 43.5s-10.5 41.167 -10.5 72.5v121c0 16.667 -4.83301 27.334 -14.5 32.001s-27.167 7.33398 -52.5 8.00098v65c26.667 -1.33301 48.667 -4.83301 66 -10.5
s30.666 -14 39.999 -25s15.833 -24.5 19.5 -40.5s5.5 -34.667 5.5 -56v-113c0 -15.333 3.83301 -28 11.5 -38s20.5 -21.667 38.5 -35v-46z" />
    <glyph glyph-name="asciitilde" unicode="~" horiz-adv-x="431" 
d="M413 222c-17.333 -28 -35.3301 -51.5029 -53.9971 -70.5029s-41.334 -28.5 -68.001 -28.5c-13.333 0 -26.333 2.83301 -39 8.5s-25 11.834 -37 18.501s-23.833 12.834 -35.5 18.501s-23.834 8.5 -36.501 8.5c-10 0 -19.333 -4 -28 -12s-20 -22.667 -34 -44l-62 31
l28 36.5c9.33301 11.667 18.833 21.667 28.5 30s20 15 31 20s23.167 7.5 36.5 7.5s27.333 -2.83301 42 -8.5s28.667 -11.667 42 -18l37 -18c11.333 -5.66699 20.666 -8.5 27.999 -8.5c9.33301 0 18.5 4.33301 27.5 13s19.5 25.334 31.5 50.001z" />
    <glyph glyph-name="uni00A0" unicode="&#xa0;" horiz-adv-x="250" 
 />
    <glyph glyph-name="cent" unicode="&#xa2;" horiz-adv-x="455" 
d="M369 146c-15.333 -13.333 -31.1709 -24.333 -47.5039 -33s-33.166 -14.334 -50.499 -17.001v-51h-60v53c-40 8 -71.833 27.667 -95.5 59s-35.5 68.333 -35.5 111c0 20.667 3.16699 40.5 9.5 59.5s15.333 35.833 27 50.5s25.5 27.167 41.5 37.5s33.667 17.5 53 21.5v53h60
v-50c34 -5.33301 67 -21.333 99 -48l-37 -53c-13.333 11.333 -24.666 19.833 -33.999 25.5s-18.666 9.83398 -27.999 12.501v-219c8.66699 2.66699 17.834 7 27.501 13s21.167 15 34.5 27zM210.995 373c-20.667 -7.33301 -37.333 -20.833 -50 -40.5s-19 -41.167 -19 -64.5
s6.5 -44.833 19.5 -64.5s29.5 -33.5 49.5 -41.5v211z" />
    <glyph glyph-name="sterling" unicode="&#xa3;" horiz-adv-x="402" 
d="M313 338c-0.666992 42 -11.002 73.8311 -31.002 95.498s-44 32.5 -72 32.5s-50.333 -10 -67 -30s-25 -46 -25 -78v-73h100v-65h-101v-156l246 1v-66h-346v65h32v156h-32v65h32v73c0 24 3.83301 46.833 11.5 68.5s18.5 40.5 32.5 56.5s30.833 28.833 50.5 38.5
s41.834 14.5 66.501 14.5c24 0 46.333 -4.83301 67 -14.5s38.834 -23.167 54.501 -40.5s28 -38.166 37 -62.499s13.5 -51.166 13.5 -80.499h-69z" />
    <glyph glyph-name="yen" unicode="&#xa5;" horiz-adv-x="424" 
d="M321 348l70 -0.000976562v-63h-106l-25 -41h130v-63h-142v-181h-71v181h-140v63h128c-2.66699 3.33301 -5.16699 7.33301 -7.5 12s-4.83301 9.33398 -7.5 14.001l-9 15h-104v63h68l-104 180h79l132 -230l133 230h79z" />
    <glyph glyph-name="copyright" unicode="&#xa9;" horiz-adv-x="560" 
d="M404 140c-17.333 -14 -35.498 -24.999 -54.498 -32.999s-38.5 -12 -58.5 -12c-23.333 0 -44.833 4.33301 -64.5 13s-36.5 20.667 -50.5 36s-25 33 -33 53s-12 41.667 -12 65c0 22.667 4 44.167 12 64.5s19.333 38 34 53s31.667 26.833 51 35.5s40.666 13 63.999 13
c40 0 77.333 -14.667 112 -44l-37 -46c-15.333 13.333 -28.833 22.166 -40.5 26.499s-23.5 6.5 -35.5 6.5c-14 0 -27.333 -2.83301 -40 -8.5s-23.5 -13.5 -32.5 -23.5s-16.167 -21.667 -21.5 -35s-8 -27.333 -8 -42s2.66699 -28.667 8 -42s12.666 -25 21.999 -35
s20 -18 32 -24s25 -9 39 -9c11.333 0 23 2.33301 35 7s26 13.667 42 27zM555.002 265.001c0 -38 -7.16699 -73.833 -21.5 -107.5s-34 -63 -59 -88s-54 -44.667 -87 -59s-68.5 -21.5 -106.5 -21.5s-73.833 7.16699 -107.5 21.5s-63 34 -88 59s-44.667 54.333 -59 88
s-21.5 69.5 -21.5 107.5s7.16699 73.5 21.5 106.5s34 62 59 87s54.333 44.667 88 59s69.5 21.5 107.5 21.5s73.5 -7.16699 106.5 -21.5s62 -34 87 -59s44.667 -54 59 -87s21.5 -68.5 21.5 -106.5zM498.002 265.001c0 30 -5.66699 58.167 -17 84.5s-26.833 49.333 -46.5 69
s-42.667 35.167 -69 46.5s-54.5 17 -84.5 17c-30.667 0 -59.334 -5.66699 -86.001 -17s-49.834 -26.833 -69.501 -46.5s-35.167 -42.667 -46.5 -69s-17 -54.5 -17 -84.5c0 -30.667 5.66699 -59.334 17 -86.001s26.833 -49.834 46.5 -69.501s42.834 -35.167 69.501 -46.5
s55.334 -17 86.001 -17c30 0 58.167 5.66699 84.5 17s49.333 26.833 69 46.5s35.167 42.834 46.5 69.501s17 55.334 17 86.001z" />
    <glyph glyph-name="guillemotleft" unicode="&#xab;" horiz-adv-x="311" 
d="M216 224l83 -100l-42 -42l-119 142l119 142l42 -42zM133 82l-120 142l120 142l44 -42l-84 -100l84 -100z" />
    <glyph glyph-name="registered" unicode="&#xae;" horiz-adv-x="571" 
d="M569 265c0 -38.667 -7.5 -75.1689 -22.5 -109.502s-35.167 -64.166 -60.5 -89.499s-55.333 -45.5 -90 -60.5s-71.334 -22.5 -110.001 -22.5c-39.333 0 -76.333 7.33301 -111 22s-64.834 34.834 -90.501 60.501s-46 55.5 -61 89.5s-22.5 70.667 -22.5 110
c0 38.667 7.5 75 22.5 109s35.333 63.667 61 89s55.834 45.333 90.501 60s71.667 22 111 22c38.667 0 75.334 -7.33301 110.001 -22s64.667 -34.667 90 -60s45.5 -55 60.5 -89s22.5 -70.333 22.5 -109zM512 262.998c0 31.333 -5.83105 60.666 -17.498 87.999
s-27.834 51.166 -48.501 71.499s-44.667 36.333 -72 48s-56.666 17.5 -87.999 17.5c-32 0 -61.833 -5.83301 -89.5 -17.5s-51.667 -27.5 -72 -47.5s-36.5 -43.667 -48.5 -71s-18 -56.333 -18 -87c0 -31.333 6 -60.666 18 -87.999s28.167 -51.166 48.5 -71.499
s44.333 -36.333 72 -48s57.5 -17.5 89.5 -17.5c31.333 0 60.666 5.83301 87.999 17.5s51.166 27.667 71.499 48s36.5 44 48.5 71s18 55.833 18 86.5zM362.002 104.998l-82 131.001h-51v-131h-58v312h141c42 0 72 -7.83301 90 -23.5s27 -37.834 27 -66.501
s-8.16699 -50 -24.5 -64s-36.5 -22.667 -60.5 -26l88 -132h-70zM373.002 327.999c0 8 -2.16797 14.166 -6.50098 18.499s-9.83301 7.5 -16.5 9.5s-14 3.16699 -22 3.5s-16 0.5 -24 0.5h-76v-68h47h15h26c8.66699 0 17.334 1 26.001 3c10 2.66699 17.667 6.33398 23 11.001
s8 12 8 22z" />
    <glyph glyph-name="guillemotright" unicode="&#xbb;" horiz-adv-x="311" 
d="M180 82l-44 42l83 100l-83 100l44 42l119 -142zM56 82l-43 42l83 100l-83 100l43 42l119 -142z" />
    <glyph glyph-name="onequarter" unicode="&#xbc;" horiz-adv-x="542" 
d="M482 -1h-52v50h-143v24l166 237h29v-211h34v-50h-34v-50zM65 0l373 527h62l-372 -527h-63zM94 478h-52v50h103v-305h-51v255zM367 99h63v92z" />
    <glyph glyph-name="onehalf" unicode="&#xbd;" horiz-adv-x="542" 
d="M471 213c0 13.333 -4.66895 24.335 -14.002 33.002s-20.666 13 -33.999 13s-24.666 -4.83301 -33.999 -14.5s-14 -26.167 -14 -49.5h-52c0 19.333 2.83301 36.166 8.5 50.499s13.334 26.166 23.001 35.499s20.5 16.333 32.5 21s24 7 36 7c28 0 51.667 -9.16699 71 -27.5
s29 -41.5 29 -69.5c0 -21.333 -6 -40 -18 -56s-24.667 -31.333 -38 -46l-56 -61h111v-49h-188v40l55 58.5l52 58.5c7.33301 8 14.166 17 20.499 27s9.5 19.667 9.5 29zM45.998 0.00195312l373 528h61l-372 -528h-62zM93.998 479.002h-51v49h102v-305h-51v256z" />
    <glyph glyph-name="threequarters" unicode="&#xbe;" horiz-adv-x="542" 
d="M85 0l373 528h61l-371 -528h-63zM482 0h-52v50h-143v24l167 238l28 -1v-212h34v-49h-34v-50zM131 221c-24.667 0 -46.333 8.16895 -65 24.502s-28.334 42.5 -29.001 78.5h50c2.66699 -20.667 7.83398 -35 15.501 -43s17.167 -12 28.5 -12c12.667 0 23.5 4.66699 32.5 14
s13.5 20.333 13.5 33c0 12 -4.66699 21.833 -14 29.5s-25.333 11.834 -48 12.501v48c21.333 1.33301 36.333 5.66602 45 12.999s13 16.666 13 27.999c0 10.667 -3.66699 19.5 -11 26.5s-16.333 10.5 -27 10.5c-10 0 -18.333 -3.5 -25 -10.5s-10.667 -20.833 -12 -41.5h-52
c6 67.333 36 101 90 101c24.667 0 45.667 -8.33301 63 -25s26 -37.334 26 -62.001s-9.33301 -45.334 -28 -62.001c21.333 -17.333 32 -39.666 32 -66.999c0 -28 -9.33301 -51 -28 -69s-42 -27 -70 -27zM367.001 99.002h63v93z" />
    <glyph glyph-name="multiply" unicode="&#xd7;" horiz-adv-x="380" 
d="M314 20l-124 124l-124 -124l-46 46l124 124l-124 124l46 46l124 -124l124 124l46 -46l-124 -124l124 -124z" />
    <glyph glyph-name="divide" unicode="&#xf7;" horiz-adv-x="380" 
d="M239 306c0 -13.333 -4.83301 -24.833 -14.5 -34.5s-21.167 -14.5 -34.5 -14.5s-24.833 4.83301 -34.5 14.5s-14.5 21.167 -14.5 34.5s4.83301 24.833 14.5 34.5s21.167 14.5 34.5 14.5s24.833 -4.83301 34.5 -14.5s14.5 -21.167 14.5 -34.5zM18 158v64h344v-64h-344z
M239 74c0 -13.333 -4.83301 -24.833 -14.5 -34.5s-21.167 -14.5 -34.5 -14.5s-24.833 4.83301 -34.5 14.5s-14.5 21.167 -14.5 34.5s4.83301 24.833 14.5 34.5s21.167 14.5 34.5 14.5s24.833 -4.83301 34.5 -14.5s14.5 -21.167 14.5 -34.5z" />
    <glyph glyph-name="kokaithai" unicode="&#xe01;" horiz-adv-x="460" 
d="M420 0l-67.002 0.000976562v259c0 40 -13.5 72.167 -40.5 96.5s-61.5 36.5 -103.5 36.5c-22 0 -43.167 -5.33301 -63.5 -16s-37.166 -24 -50.499 -40l30 -33v-303h-67v281l-46 50c21.333 38 49.333 68.333 84 91s72.334 34 113.001 34c30.667 0 59 -4.83301 85 -14.5
s48.333 -23.334 67 -41.001s33.167 -38.5 43.5 -62.5s15.5 -50.333 15.5 -79v-259z" />
    <glyph glyph-name="khokhaithai" unicode="&#xe02;" horiz-adv-x="400" 
d="M360 139c0 -20 -4.00293 -39.0039 -12.0029 -57.0039s-18.667 -33.5 -32 -46.5s-29.166 -23.333 -47.499 -31s-37.833 -11.5 -58.5 -11.5c-21.333 0 -41.166 3.83301 -59.499 11.5s-34.166 18 -47.499 31s-24 28.5 -32 46.5s-12 37 -12 57
c0 20.667 2.5 37.834 7.5 51.501s12 25.5 21 35.5s19.5 19 31.5 27l40 26c10.667 6.66699 19 13.834 25 21.501s9 18.167 9 31.5c0 17.333 -6.33301 32 -19 44s-27.667 18 -45 18c-12.667 0 -24.334 -4 -35.001 -12s-21.334 -21.667 -32.001 -41l-55 36
c15.333 28 33.333 48.333 54 61s43.334 19 68.001 19c18 0 34.833 -3.33301 50.5 -10s29.334 -15.667 41.001 -27s20.834 -24.666 27.501 -39.999s10 -31.333 10 -48c0 -20 -2.66699 -36.333 -8 -49s-12.5 -23.5 -21.5 -32.5s-19.5 -17 -31.5 -24s-24.667 -14.833 -38 -23.5
c-11.333 -8 -19.833 -16.833 -25.5 -26.5s-8.5 -22.167 -8.5 -37.5c0 -22 8.16699 -41 24.5 -57s36.5 -24 60.5 -24c23.333 0 43.166 7.83301 59.499 23.5s24.5 34.834 24.5 57.501v311h66v-311z" />
    <glyph glyph-name="khokhuatthai" unicode="&#xe03;" horiz-adv-x="395" 
d="M355 140c0 -20 -3.99805 -39.002 -11.998 -57.002s-18.667 -33.667 -32 -47s-29.166 -23.833 -47.499 -31.5s-37.833 -11.5 -58.5 -11.5c-21.333 0 -41.166 3.83301 -59.499 11.5s-34.166 18.167 -47.499 31.5s-24 28.833 -32 46.5s-12 36.834 -12 57.501
c0 23.333 3.33301 42.5 10 57.5s15 27.5 25 37.5s20.667 18.5 32 25.5l32 20.5c10 6.66699 18.333 14.167 25 22.5s10 19.166 10 32.499c0 18 -6.66699 33 -20 45l-57 -48l-96 79l39 45l55 -45l52 44c30 -11.333 52.833 -27.333 68.5 -48s23.5 -45 23.5 -73
c0 -21.333 -3.33301 -38.5 -10 -51.5s-14.834 -24 -24.501 -33s-20.334 -16.5 -32.001 -22.5s-22.334 -12.667 -32.001 -20s-17.834 -16.166 -24.501 -26.499s-10 -24.166 -10 -41.499c0 -22.667 8.16699 -42 24.5 -58s36.5 -24 60.5 -24
c23.333 0 43.166 7.83301 59.499 23.5s24.5 35.167 24.5 58.5v310h66v-310z" />
    <glyph glyph-name="khokhwaithai" unicode="&#xe04;" horiz-adv-x="450" 
d="M410 0h-67.0039v276c0 16 -3.16699 30.833 -9.5 44.5s-14.833 25.667 -25.5 36s-23.167 18.5 -37.5 24.5s-29.5 9 -45.5 9c-16.667 0 -32.167 -3 -46.5 -9s-26.833 -14.167 -37.5 -24.5s-19 -22.333 -25 -36s-9 -28.5 -9 -44.5v-17h118v-64h-118v-195h-67v276
c0 24.667 4.83301 47.834 14.5 69.501s22.834 40.667 39.501 57s36.334 29.166 59.001 38.499s46.667 14 72 14s49.333 -4.66699 72 -14s42.334 -22.166 59.001 -38.499s29.834 -35.333 39.501 -57s14.5 -44.834 14.5 -69.501v-276z" />
    <glyph glyph-name="khokhonthai" unicode="&#xe05;" horiz-adv-x="472" 
d="M432 0h-67v287c0 19.333 -4.16699 37.333 -12.5 54s-19.833 30.667 -34.5 42l-82 -74l-81 74c-32 -24 -48 -56.333 -48 -97v-26h128v-65h-128v-195h-67v287c0 38 10.833 72.333 32.5 103s51.5 55 89.5 73l74 -66l74 66c38.667 -18 68.667 -42.333 90 -73s32 -65 32 -103
v-287z" />
    <glyph glyph-name="khorakhangthai" unicode="&#xe06;" horiz-adv-x="454" 
d="M413 170c0 -24.667 -4.83105 -47.833 -14.498 -69.5s-22.834 -40.5 -39.501 -56.5s-36.334 -28.667 -59.001 -38s-46.667 -14 -72 -14c-23.333 0 -44.333 4.66699 -63 14s-37 22 -55 38v-45h-67v185c0 30 5.33301 53.5 16 70.5s22.5 31 35.5 42l35.5 29
c10.667 8.33301 16 18.833 16 31.5c0 4.66699 -0.833008 9 -2.5 13s-3.83398 7.66699 -6.50098 11l-46 -41l-88 74l39 45l48 -38l44 37c25.333 -10 44.833 -23.833 58.5 -41.5s19.834 -37.5 18.501 -59.5c-0.666992 -22.667 -6.33398 -40.167 -17.001 -52.5
s-22.167 -23.5 -34.5 -33.5s-23.666 -21 -33.999 -33s-15.5 -28.333 -15.5 -49v-15c0 -16 3 -31 9 -45s14.333 -26.333 25 -37s23.167 -19.167 37.5 -25.5s29.833 -9.5 46.5 -9.5s32.167 3 46.5 9s26.833 14.167 37.5 24.5s19.167 22.333 25.5 36s9.5 28.5 9.5 44.5v279h66
v-280z" />
    <glyph glyph-name="ngonguthai" unicode="&#xe07;" horiz-adv-x="372" 
d="M332 92c0 -14 -2.50098 -26.833 -7.50098 -38.5s-12 -22 -21 -31s-19.5 -16 -31.5 -21s-25 -7.5 -39 -7.5c-20 0 -38.167 5.33301 -54.5 16s-28.166 24.667 -35.499 42l-129 273l62 24l128 -272c5.33301 -11.333 15 -17 29 -17c9.33301 0 17 3 23 9s9 13.333 9 22v294
h-62v65h129v-358z" />
    <glyph glyph-name="chochanthai" unicode="&#xe08;" horiz-adv-x="411" 
d="M371 281c0 -19.333 -3.66699 -39 -11 -59l-83 -222h-70l-100 285h70l66 -189l53 147c5.33301 14 8 26.667 8 38c0 14.667 -3 28.667 -9 42s-14.167 25 -24.5 35s-22.333 17.833 -36 23.5s-28.167 8.5 -43.5 8.5c-28 0 -52.5 -9.16699 -73.5 -27.5
s-33.833 -44.5 -38.5 -78.5h-67c2.66699 26 9.16699 49.5 19.5 70.5s23.333 39 39 54s33.834 26.5 54.501 34.5s42.667 12 66 12c24.667 0 48 -4.5 70 -13.5s41.167 -21.333 57.5 -37s29.166 -34.167 38.499 -55.5s14 -44 14 -68z" />
    <glyph glyph-name="chochingthai" unicode="&#xe09;" horiz-adv-x="429" 
d="M388 0l-66.002 0.000976562v40c-15.333 -15.333 -31.833 -27 -49.5 -35s-37.167 -12 -58.5 -12c-24 0 -46.5 4.33301 -67.5 13s-39.5 20.5 -55.5 35.5s-28.5 32.833 -37.5 53.5s-13.5 42.667 -13.5 66v45h-32v65h99v-110c0 -30 10.333 -54.833 31 -74.5
s46 -29.5 76 -29.5c14.667 0 28.667 2.83301 42 8.5s24.833 13.5 34.5 23.5s17.334 21.5 23.001 34.5s8.5 27.167 8.5 42.5v116c0 14.667 -3 28.667 -9 42s-14.167 25 -24.5 35s-22.333 17.833 -36 23.5s-28.167 8.5 -43.5 8.5c-24 0 -46.167 -6.83301 -66.5 -20.5
s-34.833 -33.834 -43.5 -60.501h-69c13.333 48 36.333 84.333 69 109s69.334 37 110.001 37c24.667 0 47.834 -4.5 69.501 -13.5s40.667 -21.5 57 -37.5s29.166 -34.5 38.499 -55.5s14 -43.5 14 -67.5v-282z" />
    <glyph glyph-name="chochangthai" unicode="&#xe0a;" horiz-adv-x="403" 
d="M333 354c8 -7.33301 14.832 -17.834 20.499 -31.501s8.5 -28.167 8.5 -43.5v-139c0 -20 -4 -39 -12 -57s-18.667 -33.667 -32 -47s-29.166 -23.833 -47.499 -31.5s-37.833 -11.5 -58.5 -11.5c-21.333 0 -41.166 3.83301 -59.499 11.5s-34.166 18.167 -47.499 31.5
s-24 29 -32 47s-12 37 -12 57c0 20.667 2.5 37.834 7.5 51.501s12 25.5 21 35.5s19.5 19 31.5 27l40 26c10.667 6.66699 19 13.834 25 21.501s9 18.167 9 31.5c0 17.333 -6.16699 32 -18.5 44s-27.5 18 -45.5 18c-12.667 0 -24.334 -4 -35.001 -12
s-21.334 -21.667 -32.001 -41l-55 37c31.333 53.333 72 80 122 80c30 0 56.333 -8.83301 79 -26.5s37.667 -39.834 45 -66.501l116 126l50 -42zM259.999 332.999c0 -20.667 -3.3291 -37.6641 -9.99609 -50.9971s-14.834 -24.5 -24.501 -33.5s-20.334 -16.667 -32.001 -23
s-22.334 -13.333 -32.001 -21s-17.834 -16.334 -24.501 -26.001s-10 -22.5 -10 -38.5c0 -22.667 8.16699 -42.167 24.5 -58.5s36.5 -24.5 60.5 -24.5c12 0 23 2.16699 33 6.5s18.833 10.333 26.5 18s13.667 16.5 18 26.5s6.5 20.667 6.5 32v139
c0 12 -2.83301 23.667 -8.5 35s-15.167 23 -28.5 35c0 -2.66699 0.166992 -5.33398 0.5 -8.00098s0.5 -5.33398 0.5 -8.00098z" />
    <glyph glyph-name="sosothai" unicode="&#xe0b;" horiz-adv-x="393" 
d="M323 355c8 -7.33301 14.8301 -17.833 20.4971 -31.5s8.5 -28.167 8.5 -43.5v-140c0 -20 -4 -39 -12 -57s-18.667 -33.667 -32 -47s-29.166 -23.833 -47.499 -31.5s-37.833 -11.5 -58.5 -11.5c-21.333 0 -41.166 3.83301 -59.499 11.5s-34.166 18.167 -47.499 31.5
s-24 29 -32 47s-12 37 -12 57c0 20.667 2.5 37.834 7.5 51.501s12 25.667 21 36s19.5 19.666 31.5 27.999l40 27.5c10.667 7.33301 19 15 25 23s9 18.667 9 32c0 18 -6.66699 33 -20 45l-59 -51l-97 81l40 45l55 -45l54 46c24 -9.33301 43.333 -22 58 -38s24.667 -34 30 -54
l115 125l50 -41zM249.997 338c0 -21.333 -3.3291 -38.668 -9.99609 -52.001s-14.834 -24.666 -24.501 -33.999s-20.334 -17.5 -32.001 -24.5s-22.334 -14.333 -32.001 -22s-17.834 -16.5 -24.501 -26.5s-10 -23 -10 -39c0 -22.667 8.16699 -42.167 24.5 -58.5
s36.5 -24.5 60.5 -24.5c12 0 23 2.16699 33 6.5s18.833 10.333 26.5 18s13.667 16.5 18 26.5s6.5 20.667 6.5 32v139c0 12 -2.83301 23.5 -8.5 34.5s-15.167 22.5 -28.5 34.5c0.666992 -2.66699 1 -6 1 -10z" />
    <glyph glyph-name="chochoethai" unicode="&#xe0c;" horiz-adv-x="746" 
d="M705 157c0 -26.667 -4.33203 -50.168 -12.999 -70.501s-20.5 -37.5 -35.5 -51.5s-32.5 -24.5 -52.5 -31.5s-41.333 -10.5 -64 -10.5c-20.667 0 -40.667 5.33301 -60 16s-36.666 23.667 -51.999 39v-48h-69v259c0 20 -3.5 38.167 -10.5 54.5s-17 30.333 -30 42
s-28.5 20.667 -46.5 27s-38 9.5 -60 9.5c-22.667 0 -44.334 -5.33301 -65.001 -16s-38 -24 -52 -40l31 -33l-1 -238h67v-65h-134v281l-47 50c22 38 50.5 68.5 85.5 91.5s73.5 34.5 115.5 34.5c31.333 0 60.166 -5 86.499 -15s49 -23.667 68 -41s33.833 -38.166 44.5 -62.499
s16 -50.833 16 -79.5v-66c0 -20 3.83301 -38.333 11.5 -55s17.167 -31 28.5 -43s23.5 -21.333 36.5 -28s25.167 -10 36.5 -10c28 0 51.167 8.16699 69.5 24.5s27.5 41.5 27.5 75.5v294h68v-294z" />
    <glyph glyph-name="yoyingthai" unicode="&#xe0d;" horiz-adv-x="740" 
d="M700 6c0 -23.333 -4.49609 -45.1699 -13.4961 -65.5029s-21.333 -38.166 -37 -53.499s-34.167 -27.5 -55.5 -36.5s-44.333 -13.5 -69 -13.5c-68.667 0 -122.334 34 -161.001 102l57 35c26.667 -48 61.334 -72 104.001 -72c14.667 0 28.667 2.66699 42 8
s24.666 12.833 33.999 22.5s16.833 20.834 22.5 33.501s8.5 26 8.5 40v25c-29.333 -25.333 -63.333 -38 -102 -38c-24 0 -46.333 4.33301 -67 13s-38.834 20.5 -54.501 35.5s-27.834 32.5 -36.501 52.5s-13 41.333 -13 64v102c0 40 -13.5 72 -40.5 96s-62.5 36 -106.5 36
c-22.667 0 -44.334 -5.33301 -65.001 -16s-38 -24 -52 -40l31 -32v-239h66v-65h-134v281l-47 50c22 38 50.5 68.5 85.5 91.5s73.5 34.5 115.5 34.5c32 0 61.167 -5 87.5 -15s49 -23.667 68 -41s33.667 -38.166 44 -62.499s15.5 -50.833 15.5 -79.5v-102
c0 -28 9.66699 -51.5 29 -70.5s44 -28.5 74 -28.5s54.5 9.16699 73.5 27.5s28.5 42.5 28.5 72.5v292h68v-288v-156z" />
    <glyph glyph-name="dochadathai" unicode="&#xe0e;" horiz-adv-x="469" 
d="M322 -170c-23.333 17.333 -45.501 30.001 -66.501 38.001s-42.833 12 -65.5 12c-22 0 -43.667 -4 -65 -12s-43.666 -20.667 -66.999 -38l-41 49c30 22.667 58.833 39.167 86.5 49.5s56.5 15.5 86.5 15.5c45.333 0 86.666 -10.333 123.999 -31l48 47v299
c0 20 -3.5 38 -10.5 54s-17 29.833 -30 41.5s-28.333 20.667 -46 27s-36.834 9.5 -57.501 9.5c-22 0 -43.167 -5.16699 -63.5 -15.5s-37.5 -23.833 -51.5 -40.5l31 -32v-303h-110v65h43v215l-46 51c21.333 38 49 68.333 83 91s72 34 114 34
c30.667 0 58.834 -4.83301 84.501 -14.5s47.834 -23.334 66.501 -41.001s33.167 -38.5 43.5 -62.5s15.5 -50.333 15.5 -79l1 -325z" />
    <glyph glyph-name="topatakthai" unicode="&#xe0f;" horiz-adv-x="469" 
d="M312 -172l-79.999 71l-79 -71l-121 112l43 43l79 -71l78 70l78 -70l52 46v301c0 19.333 -3.5 37.166 -10.5 53.499s-17 30.333 -30 42s-28.333 20.667 -46 27s-36.834 9.5 -57.501 9.5c-22 0 -43.167 -5.16699 -63.5 -15.5s-37.5 -23.833 -51.5 -40.5l31 -32v-303h-110
v65h43v215l-46 51c21.333 38 49 68.333 83 91s72 34 114 34c30.667 0 59 -5 85 -15s48.333 -23.667 67 -41s33.167 -38.166 43.5 -62.499s15.5 -50.833 15.5 -79.5v-322z" />
    <glyph glyph-name="thothanthai" unicode="&#xe10;" horiz-adv-x="411" 
d="M334 387c11.333 -15.333 20.335 -32.001 27.002 -50.001s10 -36.667 10 -56s-3.66699 -39.333 -11 -60l-83 -221h-70l-100 285h70l66 -190l54 147c2 6.66699 3.66699 13.167 5 19.5s2 12.833 2 19.5c0 14.667 -3 28.667 -9 42s-14 25 -24 35s-21.833 17.833 -35.5 23.5
s-28.5 8.5 -44.5 8.5c-28 0 -52.333 -9.16699 -73 -27.5s-33.334 -44.5 -38.001 -78.5h-67c2.66699 26 9.16699 49.5 19.5 70.5s23.333 39 39 54s33.667 26.5 54 34.5s42.166 12 65.499 12c17.333 0 33.5 -2.16699 48.5 -6.5s29.167 -10.166 42.5 -17.499l54 61l52 -44z
M312.002 -181.001l-74 70l-75 -70l-116 111l39 40l78 -73l75 70l73 -68l13 11v59h62v-81z" />
    <glyph glyph-name="thonangmonthothai" unicode="&#xe11;" horiz-adv-x="459" 
d="M418 0l-66 0.00292969v328c0 11.333 -2.16699 21.666 -6.5 30.999s-9.5 16.666 -15.5 21.999l-222 -381h-60v178c0 26 4.16699 47.667 12.5 65s17.5 32.333 27.5 45l27.5 34.5c8.33301 10.333 12.5 21.833 12.5 34.5c0 9.33301 -2.66699 17.333 -8 24l-43 -41l-86 74
l39 45l45 -38l42 37c50.667 -20 76 -52.667 76 -98c0 -19.333 -4.16699 -35.833 -12.5 -49.5s-17.5 -27 -27.5 -40s-19.167 -26.333 -27.5 -40s-12.5 -29.834 -12.5 -48.501v-47l186 319c40 -4 69.833 -18.167 89.5 -42.5s29.5 -53.5 29.5 -87.5v-324z" />
    <glyph glyph-name="thophuthaothai" unicode="&#xe12;" horiz-adv-x="761" 
d="M720 157c0 -26.667 -4.33105 -50.1689 -12.998 -70.502s-20.5 -37.333 -35.5 -51s-32.5 -24 -52.5 -31s-41.333 -10.5 -64 -10.5c-20 0 -40 5.33301 -60 16s-37.333 24 -52 40v-50h-69v294c0 19.333 -4.33301 36.5 -13 51.5s-20.334 27.167 -35.001 36.5l-79 -63l-79 65
c-21.333 -13.333 -39.333 -33.166 -54 -59.499s-22 -61.5 -22 -105.5c0 -23.333 2.66699 -44.666 8 -63.999s13 -36.166 23 -50.499s22 -25.5 36 -33.5s29.667 -12 47 -12c8.66699 0 16.5 1.83301 23.5 5.5s16.5 10.834 28.5 21.501l48 -46
c-17.333 -15.333 -34 -26.833 -50 -34.5s-32.667 -11.5 -50 -11.5c-30 0 -56.333 6 -79 18s-41.667 28.167 -57 48.5s-26.833 44.166 -34.5 71.499s-11.5 56.333 -11.5 87c0 64 14.333 116 43 156s65.667 68.333 111 85l69 -56l69 55c38 -14 68.5 -34.667 91.5 -62
s34.833 -61 35.5 -101v-108c0 -18.667 3.66699 -36 11 -52s16.666 -29.833 27.999 -41.5s23.5 -20.834 36.5 -27.501s25.167 -10 36.5 -10c28 0 51.167 8.16699 69.5 24.5s27.5 41.5 27.5 75.5v294h68v-294z" />
    <glyph glyph-name="nonenthai" unicode="&#xe13;" horiz-adv-x="741" 
d="M632 0l0.00195312 42.002c-30.667 -32.667 -67.334 -49 -110.001 -49c-23.333 0 -44.833 3.5 -64.5 10.5s-36.667 17.5 -51 31.5s-25.666 31.167 -33.999 51.5s-12.5 43.833 -12.5 70.5v102c0 20 -3.66699 38.167 -11 54.5s-17.5 30.166 -30.5 41.499
s-28.5 20.166 -46.5 26.499s-38 9.5 -60 9.5c-22.667 0 -44.334 -5.16699 -65.001 -15.5s-38 -23.5 -52 -39.5l31 -33v-238h66v-65h-134v280l-47 51c22 38 50.5 68.333 85.5 91s73.5 34 115.5 34c31.333 0 60.166 -4.83301 86.499 -14.5s49 -23.334 68 -41.001
s33.833 -38.5 44.5 -62.5s16 -50.333 16 -79l1 -102c0 -34 9 -59.167 27 -75.5s40.333 -24.5 67 -24.5c13.333 0 26.5 3.16699 39.5 9.5s24.833 15 35.5 26s19.167 23.833 25.5 38.5s9.5 30.334 9.5 47.001v272h68v-450h-68z" />
    <glyph glyph-name="dodekthai" unicode="&#xe14;" horiz-adv-x="472" 
d="M364 0l-0.00585938 281.002c0 24 -6.66699 44.667 -20 62s-30.166 30.166 -50.499 38.499s-42.166 11.833 -65.499 10.5s-45.166 -8.5 -65.499 -21.5s-37.166 -32.333 -50.499 -58s-20 -58.167 -20 -97.5c0 -22 2.66699 -42.5 8 -61.5s13 -35.5 23 -49.5
s22 -24.833 36 -32.5s29.667 -11.5 47 -11.5c8.66699 0 16.5 1.83301 23.5 5.5s16.5 10.834 28.5 21.501l48 -46c-17.333 -15.333 -34 -26.833 -50 -34.5s-32.667 -11.5 -50 -11.5c-30 0 -56.333 5.66699 -79 17s-41.667 27 -57 47s-26.833 43.333 -34.5 70
s-11.5 55.334 -11.5 86.001c0 42 6.33301 78.333 19 109s29.334 55.667 50.001 75s44 33.666 70 42.999s52.333 14 79 14c24 0 47.333 -4 70 -12s42.834 -19.333 60.501 -34s32 -32.834 43 -54.501s16.5 -45.834 16.5 -72.501v-283h-68z" />
    <glyph glyph-name="totaothai" unicode="&#xe15;" horiz-adv-x="475" 
d="M368 0l0.00195312 292.001c0 19.333 -4.33301 36.666 -13 51.999s-20.334 27.666 -35.001 36.999l-77 -63l-78 64c-20.667 -13.333 -38.167 -33.666 -52.5 -60.999s-21.5 -62 -21.5 -104c0 -22.667 2.66699 -43.5 8 -62.5s12.833 -35.5 22.5 -49.5s21.334 -25 35.001 -33
s29.167 -12 46.5 -12c7.33301 0 14.666 1.83301 21.999 5.5s16.666 11.167 27.999 22.5l48 -46c-32.667 -30.667 -65.334 -46 -98.001 -46c-29.333 0 -55.166 5.66699 -77.499 17s-41 27 -56 47s-26.333 43.333 -34 70s-11.5 55.667 -11.5 87c0 64.667 14 117 42 157
s64.333 68 109 84l68 -56l68 56c38 -14 68 -34.833 90 -62.5s33 -61.5 33 -101.5v-294h-66z" />
    <glyph glyph-name="thothungthai" unicode="&#xe16;" horiz-adv-x="460" 
d="M420 0l-67 0.000976562v259c0 40 -13.5 72.167 -40.5 96.5s-61.5 36.5 -103.5 36.5c-22 0 -43.167 -5.33301 -63.5 -16s-37.5 -24 -51.5 -40l30 -33v-239l66 1v-65h-132v281l-46 50c22.667 38 50.667 68.333 84 91s71 34 113 34c30.667 0 59 -4.83301 85 -14.5
s48.333 -23.334 67 -41.001s33.167 -38.5 43.5 -62.5s15.5 -50.333 15.5 -79v-259z" />
    <glyph glyph-name="thothahanthai" unicode="&#xe17;" horiz-adv-x="450" 
d="M410 0l-67.001 0.00292969v294c0 16 -2.83301 30.167 -8.5 42.5s-13.334 22.666 -23.001 30.999s-20.667 14.666 -33 18.999s-25.166 6.5 -38.499 6.5c-16 0 -32 -3.5 -48 -10.5s-30.167 -16.5 -42.5 -28.5s-22.5 -26 -30.5 -42s-12 -33 -12 -51v-261h-67v450h67v-58
c18.667 20.667 39.834 36.834 63.501 48.501s47.167 17.5 70.5 17.5c21.333 0 42.166 -3.5 62.499 -10.5s38.333 -17.333 54 -31s28.334 -30.834 38.001 -51.501s14.5 -44.334 14.5 -71.001v-294z" />
    <glyph glyph-name="thothongthai" unicode="&#xe18;" horiz-adv-x="426" 
d="M330 312c-6 16 -14.0049 29.3301 -24.0049 39.9971s-21 19.167 -33 25.5s-24.667 10.833 -38 13.5s-26.333 4 -39 4c-14.667 0 -28.334 -1.83301 -41.001 -5.5s-23.5 -8 -32.5 -13s-16.167 -10.167 -21.5 -15.5s-8 -10 -8 -14c0 -6 3.33301 -11.667 10 -17
s17.667 -10.333 33 -15c15.333 -4 30.333 -7 45 -9s26.334 -3.66699 35.001 -5c19.333 -3.33301 39.333 -8 60 -14s39.334 -14.5 56.001 -25.5s30.334 -25.333 41.001 -43s16 -39.5 16 -65.5c0 -24.667 -4.83301 -46.834 -14.5 -66.501s-22.5 -36.334 -38.5 -50.001
s-34.833 -24.167 -56.5 -31.5s-44.5 -11 -68.5 -11s-46.667 3.66699 -68 11s-40.166 17.833 -56.499 31.5s-29.166 30.334 -38.499 50.001s-14 41.834 -14 66.501v89h66v-89c0 -28.667 10.5 -51.5 31.5 -68.5s47.5 -25.5 79.5 -25.5c32.667 0 59.334 8.5 80.001 25.5
s31 39.833 31 68.5c0 20 -6 35.5 -18 46.5s-26.667 19.5 -44 25.5s-35.666 10.333 -54.999 13s-36 5.33398 -50 8.00098c-12.667 2.66699 -26.5 6.16699 -41.5 10.5s-29 10.333 -42 18s-23.833 17.167 -32.5 28.5s-13 25 -13 41c0 18.667 5.5 35.334 16.5 50.001
s25 26.834 42 36.501s35.667 17 56 22s40.166 7.5 59.499 7.5s38.5 -2.16699 57.5 -6.5s37 -11.333 54 -21s32.333 -22.5 46 -38.5s25.167 -36 34.5 -60z" />
    <glyph glyph-name="nonuthai" unicode="&#xe19;" horiz-adv-x="450" 
d="M343 0v57c-19.333 -20 -40.833 -35.667 -64.5 -47s-47.167 -17 -70.5 -17c-21.333 0 -42 3.5 -62 10.5s-37.833 17.333 -53.5 31s-28.334 30.667 -38.001 51s-14.5 44.166 -14.5 71.499v293h67v-293c0 -16 2.83301 -30.333 8.5 -43s13.167 -23.167 22.5 -31.5
s20.333 -14.666 33 -18.999s25.667 -6.5 39 -6.5c16 0 32 3.33301 48 10s30.333 16 43 28s22.834 26 30.501 42s11.5 33.333 11.5 52v261h67v-450h-67z" />
    <glyph glyph-name="bobaimaithai" unicode="&#xe1a;" horiz-adv-x="450" 
d="M410 174c0 -25.333 -4.8291 -48.833 -14.4961 -70.5s-22.834 -40.667 -39.501 -57s-36.334 -29.166 -59.001 -38.499s-46.667 -14 -72 -14s-49.333 4.66699 -72 14s-42.334 22.166 -59.001 38.499s-29.834 35.333 -39.501 57s-14.5 45.167 -14.5 70.5v276h67v-276
c0 -16 3 -30.833 9 -44.5s14.333 -25.834 25 -36.501s23.167 -19 37.5 -25s29.833 -9 46.5 -9c16 0 31.167 3 45.5 9s26.833 14.333 37.5 25s19.167 22.834 25.5 36.501s9.5 28.5 9.5 44.5v276h67v-276z" />
    <glyph glyph-name="poplathai" unicode="&#xe1b;" horiz-adv-x="450" 
d="M410 175c0 -25.333 -4.8291 -48.833 -14.4961 -70.5s-22.834 -40.667 -39.501 -57s-36.334 -29.166 -59.001 -38.499s-46.667 -14 -72 -14s-49.333 4.66699 -72 14s-42.334 22.166 -59.001 38.499s-29.834 35.333 -39.501 57s-14.5 45.167 -14.5 70.5v275h67v-275
c0 -16 3 -30.833 9 -44.5s14.333 -25.834 25 -36.501s23.167 -19 37.5 -25s29.833 -9 46.5 -9c16 0 31.167 3 45.5 9s26.833 14.333 37.5 25s19.167 22.834 25.5 36.501s9.5 28.5 9.5 44.5v457h67v-457z" />
    <glyph glyph-name="phophungthai" unicode="&#xe1c;" horiz-adv-x="508" 
d="M468 115c0 -16.667 -3.33105 -32.167 -9.99805 -46.5s-15.5 -26.833 -26.5 -37.5s-24.167 -19.167 -39.5 -25.5s-31.333 -9.5 -48 -9.5c-36 0 -66 12.667 -90 38c-24 -25.333 -54 -38 -90 -38c-17.333 0 -33.5 3.16699 -48.5 9.5s-28 14.833 -39 25.5
s-19.833 23.167 -26.5 37.5s-10 29.833 -10 46.5v161c0 24.667 5 47.834 15 69.501s24 40.667 42 57s39.5 29.166 64.5 38.499s52.5 14 82.5 14v-65c-21.333 0 -40.5 -3 -57.5 -9s-31.333 -14.167 -43 -24.5s-20.667 -22.333 -27 -36s-9.5 -28.5 -9.5 -44.5v-161
c0 -15.333 5.5 -28.333 16.5 -39s24.5 -16 40.5 -16c15.333 0 28.666 5.33301 39.999 16s17 23.667 17 39v178h66v-178c0 -15.333 5.66699 -28.333 17 -39s24.666 -16 39.999 -16c16 0 29.5 5.33301 40.5 16s16.5 23.667 16.5 39v335h67v-335z" />
    <glyph glyph-name="fofathai" unicode="&#xe1d;" horiz-adv-x="508" 
d="M468 115c0 -16.667 -3.33105 -32.167 -9.99805 -46.5s-15.5 -26.833 -26.5 -37.5s-24.167 -19.167 -39.5 -25.5s-31.333 -9.5 -48 -9.5c-36 0 -66 12.667 -90 38c-24 -25.333 -54 -38 -90 -38c-17.333 0 -33.5 3.16699 -48.5 9.5s-28 14.833 -39 25.5
s-19.833 23.167 -26.5 37.5s-10 29.833 -10 46.5v161c0 24.667 5 48 15 70s24 41 42 57s39.5 28.667 64.5 38s52.5 14 82.5 14v-65c-21.333 0 -40.5 -3 -57.5 -9s-31.333 -14.167 -43 -24.5s-20.667 -22.333 -27 -36s-9.5 -28.5 -9.5 -44.5v-161
c0 -15.333 5.5 -28.333 16.5 -39s24.5 -16 40.5 -16c15.333 0 28.666 5.33301 39.999 16s17 23.667 17 39v178h66v-178c0 -15.333 5.66699 -28.333 17 -39s24.666 -16 39.999 -16c16 0 29.5 5.33301 40.5 16s16.5 23.667 16.5 39v517h67v-517z" />
    <glyph glyph-name="phophanthai" unicode="&#xe1e;" horiz-adv-x="526" 
d="M486 120c0 -17.333 -3.33496 -33.5 -10.002 -48.5s-15.834 -28.167 -27.501 -39.5s-25.167 -20.333 -40.5 -27s-32 -10 -50 -10c-19.333 0 -37.166 3.66699 -53.499 11s-30.166 17.333 -41.499 30c-11.333 -12.667 -25.166 -22.667 -41.499 -30s-34.166 -11 -53.499 -11
c-18 0 -34.667 3.33301 -50 10s-28.833 15.667 -40.5 27s-20.834 24.5 -27.501 39.5s-10 31.167 -10 48.5v330h66v-330c0 -16.667 6 -30.834 18 -42.501s26.667 -17.5 44 -17.5s32 5.83301 44 17.5s18 25.834 18 42.501v330h66v-330c0 -16.667 6 -30.834 18 -42.501
s26.667 -17.5 44 -17.5s32 5.83301 44 17.5s18 25.834 18 42.501v330h66v-330z" />
    <glyph glyph-name="fofanthai" unicode="&#xe1f;" horiz-adv-x="527" 
d="M487 120c0 -17.333 -3.33105 -33.5 -9.99805 -48.5s-15.834 -28.167 -27.501 -39.5s-25.334 -20.333 -41.001 -27s-32.5 -10 -50.5 -10c-18.667 0 -36.167 3.66699 -52.5 11s-30.5 17.333 -42.5 30c-11.333 -12.667 -25.166 -22.667 -41.499 -30s-34.166 -11 -53.499 -11
c-17.333 0 -33.833 3.33301 -49.5 10s-29.334 15.667 -41.001 27s-20.834 24.5 -27.501 39.5s-10 31.167 -10 48.5v330h67v-330c0 -16.667 5.83301 -30.834 17.5 -42.501s26.167 -17.5 43.5 -17.5s32 5.83301 44 17.5s18 25.834 18 42.501v330h67v-330
c0 -16.667 5.83301 -30.834 17.5 -42.501s26.167 -17.5 43.5 -17.5s32 5.83301 44 17.5s18 25.834 18 42.501v512h67v-512z" />
    <glyph glyph-name="phosamphaothai" unicode="&#xe20;" horiz-adv-x="469" 
d="M362 0v259.001c0 40 -13.5 72.167 -40.5 96.5s-61.5 36.5 -103.5 36.5c-22 0 -43.167 -5.33301 -63.5 -16s-37.5 -24 -51.5 -40l31 -33v-303h-110v65h43v216l-46 50c21.333 38 49 68.333 83 91s72 34 114 34c30.667 0 59 -4.83301 85 -14.5s48.333 -23.334 67 -41.001
s33.167 -38.5 43.5 -62.5s15.5 -50.333 15.5 -79v-259h-67z" />
    <glyph glyph-name="momathai" unicode="&#xe21;" horiz-adv-x="450" 
d="M410 157c0 -27.333 -4.83496 -51.166 -14.502 -71.499s-22.334 -37.333 -38.001 -51s-33.667 -24 -54 -31s-41.166 -10.5 -62.499 -10.5c-23.333 0 -46.666 5.66699 -69.999 17s-44.666 27 -63.999 47v-57h-67v450h67v-261c0 -18 4 -35 12 -51s18.167 -30 30.5 -42
s26.5 -21.5 42.5 -28.5s32 -10.5 48 -10.5c13.333 0 26.166 2.16699 38.499 6.5s23.333 10.666 33 18.999s17.334 18.833 23.001 31.5s8.5 27 8.5 43v293h67v-293z" />
    <glyph glyph-name="yoyakthai" unicode="&#xe22;" horiz-adv-x="445" 
d="M405 175c0 -25.333 -4.83203 -48.8301 -14.499 -70.4971s-23 -40.834 -40 -57.501s-36.833 -29.667 -59.5 -39s-47 -14 -73 -14c-24.667 0 -47.834 4.33301 -69.501 13s-40.834 20.667 -57.501 36s-30.334 33.833 -41.001 55.5s-17 45.167 -19 70.5l67 67
c-17.333 16 -32 31.667 -44 47s-18 35.666 -18 60.999c0 15.333 3 29.833 9 43.5s14.167 25.5 24.5 35.5s22.5 18 36.5 24s29 9 45 9c15.333 0 30.5 -3.33301 45.5 -10s31.167 -18 48.5 -34l-48 -46c-11.333 10 -20.333 16.667 -27 20s-13.334 5 -20.001 5
c-13.333 0 -24.666 -4.5 -33.999 -13.5s-14 -20.167 -14 -33.5c0 -12.667 5.66699 -24.667 17 -36l73 -73l-90 -90c6.66699 -25.333 20.667 -46.166 42 -62.499s46 -24.5 74 -24.5c16.667 0 32.334 3.16699 47.001 9.5s27.334 14.666 38.001 24.999
s19.167 22.666 25.5 36.999s9.5 29.5 9.5 45.5v275h67v-275z" />
    <glyph glyph-name="roruathai" unicode="&#xe23;" horiz-adv-x="408" 
d="M313 311c-10.667 32 -26.1621 54.167 -46.4951 66.5s-43.833 18.5 -70.5 18.5c-28 0 -50.667 -5.83301 -68 -17.5s-26 -27.167 -26 -46.5c0 -12 6.66699 -20.667 20 -26s30.166 -10 50.499 -14l65.5 -13c23.333 -4.66699 45.166 -11.667 65.499 -21
s37.166 -22.5 50.499 -39.5s20 -39.5 20 -67.5c0 -26 -5 -48.833 -15 -68.5s-23.167 -36.167 -39.5 -49.5s-34.833 -23.5 -55.5 -30.5s-41.334 -10.5 -62.001 -10.5c-20 0 -40 3.16699 -60 9.5s-38.333 16 -55 29s-30.5 29.667 -41.5 50s-17.5 44.166 -19.5 71.499l64 22
c2 -21.333 6.16699 -39.5 12.5 -54.5s14.5 -27.167 24.5 -36.5s21.333 -16 34 -20s26 -6 40 -6c30 0 55.167 8.16699 75.5 24.5s30.5 39.5 30.5 69.5c0 18.667 -7 32.5 -21 41.5s-31.667 16.167 -53 21.5c-16.667 4 -36.334 7.83301 -59.001 11.5
s-44.167 9.33398 -64.5 17.001s-37.666 18.334 -51.999 32.001s-21.5 32.167 -21.5 55.5c0 21.333 4.66699 40.166 14 56.499s21.5 30 36.5 41s32 19.167 51 24.5s38.167 8 57.5 8c18 0 36.167 -2.16699 54.5 -6.5s35.666 -11.5 51.999 -21.5s30.833 -23 43.5 -39
s22.667 -35.667 30 -59z" />
    <glyph glyph-name="ruthai" unicode="&#xe24;" horiz-adv-x="460" 
d="M420 -171l-66.999 0.00195312v430c0 19.333 -3.5 37.166 -10.5 53.499s-17 30.333 -30 42s-28.333 20.667 -46 27s-36.834 9.5 -57.501 9.5c-22 0 -43.167 -5.33301 -63.5 -16s-37.5 -24 -51.5 -40l30 -33v-237h66v-65h-132v280l-46 51c21.333 38 49 68.333 83 91
s72 34 114 34c30.667 0 59 -4.83301 85 -14.5s48.333 -23.334 67 -41.001s33.167 -38.5 43.5 -62.5s15.5 -50.333 15.5 -79v-430z" />
    <glyph glyph-name="lolingthai" unicode="&#xe25;" horiz-adv-x="441" 
d="M335 0l-0.000976562 124c0 17.333 -3.33301 32.5 -10 45.5s-15.5 24 -26.5 33s-23.667 15.667 -38 20s-29.166 6.5 -44.499 6.5s-29.833 -2.16699 -43.5 -6.5s-25.834 -11 -36.501 -20s-19.167 -20 -25.5 -33s-9.5 -28.167 -9.5 -45.5c0 -16 4 -31.333 12 -46
s21.333 -29.334 40 -44.001l-46 -47c-48.667 38.667 -73 84.334 -73 137.001c0 26.667 5.16699 50.5 15.5 71.5s24 38.833 41 53.5s36.333 26 58 34s44.167 12 67.5 12c20.667 0 41.167 -3.16699 61.5 -9.5s39.5 -16.166 57.5 -29.499v31c0 16.667 -3.5 31.5 -10.5 44.5
s-16.167 23.833 -27.5 32.5s-24.333 15.167 -39 19.5s-29.334 6.5 -44.001 6.5c-28 0 -53.167 -7.66699 -75.5 -23s-36.166 -41 -41.499 -77h-67c2.66699 28.667 9.83398 53.5 21.501 74.5s26 38.167 43 51.5s35.833 23.166 56.5 29.499s41.667 9.5 63 9.5
c22 0 44.167 -3.5 66.5 -10.5s42.333 -17.5 60 -31.5s32.167 -31.5 43.5 -52.5s17 -45.5 17 -73.5v-287h-66z" />
    <glyph glyph-name="luthai" unicode="&#xe26;" horiz-adv-x="469" 
d="M362 -171l0.000976562 430c0 20 -3.5 38 -10.5 54s-17 29.833 -30 41.5s-28.333 20.667 -46 27s-36.834 9.5 -57.501 9.5c-22 0 -43.167 -5.16699 -63.5 -15.5s-37.5 -23.5 -51.5 -39.5l31 -33v-303h-110v65h43v215l-46 51c21.333 38 49 68.333 83 91s72 34 114 34
c30.667 0 59 -5 85 -15s48.333 -23.667 67 -41s33.167 -38 43.5 -62s15.5 -50.333 15.5 -79v-430h-67z" />
    <glyph glyph-name="wowaenthai" unicode="&#xe27;" horiz-adv-x="414" 
d="M374 225c0 -34.667 -5.49805 -66.3301 -16.498 -94.9971s-25.833 -53.167 -44.5 -73.5s-40.334 -36.166 -65.001 -47.499s-50.334 -16.833 -77.001 -16.5s-53.5 6.66602 -80.5 18.999s-52.5 31.833 -76.5 58.5l42 46c26 -29.333 53.667 -47.333 83 -54
s56.333 -4.33398 81 6.99902s45.167 30.5 61.5 57.5s24.5 59.833 24.5 98.5s-8 71.5 -24 98.5s-36.333 46 -61 57s-51.667 13.167 -81 6.5s-57.333 -24.334 -84 -53.001l-42 46c24 26.667 49.667 46.167 77 58.5s54.333 18.666 81 18.999s52.167 -5.16699 76.5 -16.5
s45.833 -27.166 64.5 -47.499s33.5 -44.833 44.5 -73.5s16.5 -60.334 16.5 -95.001z" />
    <glyph glyph-name="sosalathai" unicode="&#xe28;" horiz-adv-x="450" 
d="M371 389c12 -15.333 21.498 -32.334 28.498 -51.001s10.5 -38.667 10.5 -60v-278h-67v278c0 16 -3 30.833 -9 44.5s-14.333 25.667 -25 36s-23.167 18.5 -37.5 24.5s-29.833 9 -46.5 9c-16 0 -31.167 -3 -45.5 -9s-26.833 -14.167 -37.5 -24.5s-19.167 -22.333 -25.5 -36
s-9.5 -28.5 -9.5 -44.5v-18h119v-63h-119v-197h-67v278c0 24.667 4.83301 47.834 14.5 69.501s22.834 40.667 39.501 57s36.334 29.166 59.001 38.499s46.667 14 72 14c17.333 0 33.833 -2.16699 49.5 -6.5s30.5 -10.166 44.5 -17.499l54 59l52 -43z" />
    <glyph glyph-name="sorusithai" unicode="&#xe29;" horiz-adv-x="451" 
d="M410 231l0.00390625 -57c0 -25.333 -4.83301 -48.833 -14.5 -70.5s-22.834 -40.667 -39.501 -57s-36.334 -29.166 -59.001 -38.499s-46.667 -14 -72 -14s-49.333 4.66699 -72 14s-42.334 22.166 -59.001 38.499s-29.834 35.333 -39.501 57s-14.5 45.167 -14.5 70.5v276
h67v-276c0 -16 3 -31 9 -45s14.333 -26.167 25 -36.5s23.167 -18.5 37.5 -24.5s29.833 -9 46.5 -9c16 0 31.167 3 45.5 9s26.833 14.167 37.5 24.5s19.167 22.5 25.5 36.5s9.5 29 9.5 45v57h-56c-20 0 -36.667 6.66699 -50 20s-20 29.333 -20 48v41h64v-39c0 -4 2 -6 6 -6
h56v155h67v-155h42v-64h-42z" />
    <glyph glyph-name="sosuathai" unicode="&#xe2a;" horiz-adv-x="441" 
d="M368 387c22 -27.333 32.999 -60.666 32.999 -99.999v-287h-66v125c0 17.333 -3.33301 32.5 -10 45.5s-15.5 23.833 -26.5 32.5s-23.667 15.167 -38 19.5s-29.166 6.5 -44.499 6.5s-29.833 -2.16699 -43.5 -6.5s-25.834 -11 -36.501 -20s-19.167 -20 -25.5 -33
s-9.5 -27.833 -9.5 -44.5c0 -16 4 -31.333 12 -46s21.333 -29.334 40 -44.001l-46 -48c-48.667 38.667 -73 84.667 -73 138c0 26 5.16699 49.5 15.5 70.5s24 38.833 41 53.5s36.333 26 58 34s44.167 12 67.5 12c20.667 0 41.167 -3 61.5 -9s39.5 -15.667 57.5 -29v30
c0 16.667 -3.5 31.5 -10.5 44.5s-16.167 23.833 -27.5 32.5s-24.333 15.334 -39 20.001s-29.334 7 -44.001 7c-28 0 -53.167 -7.83301 -75.5 -23.5s-36.166 -41.5 -41.499 -77.5h-67c2.66699 29.333 9.83398 54.5 21.501 75.5s26 38.167 43 51.5s35.833 23.166 56.5 29.499
s41.667 9.5 63 9.5c36 0 69.667 -8.33301 101 -25l56 61l52 -45z" />
    <glyph glyph-name="hohipthai" unicode="&#xe2b;" horiz-adv-x="461" 
d="M421 0h-67.001v224c0 20 -7.16699 37 -21.5 51s-32.166 21 -53.499 21c-17.333 0 -31.333 -4 -42 -12l-130 -92v-192h-67v450h67v-181l269 190l39 -49l-86 -61c28 -10.667 50.333 -27.167 67 -49.5s25 -48.5 25 -78.5v-221z" />
    <glyph glyph-name="lochulathai" unicode="&#xe2c;" horiz-adv-x="527" 
d="M487 478c0 -14.667 -1.66504 -27.6699 -4.99805 -39.0029s-9.66602 -20.666 -18.999 -27.999c9.33301 -10.667 15.666 -22.167 18.999 -34.5s5 -26.166 5 -41.499v-215c0 -17.333 -3.33301 -33.5 -10 -48.5s-15.834 -28.167 -27.501 -39.5
s-25.334 -20.166 -41.001 -26.499s-32.5 -9.5 -50.5 -9.5c-18.667 0 -36.167 3.66699 -52.5 11s-30.5 17.333 -42.5 30c-11.333 -12.667 -25.166 -22.667 -41.499 -30s-34.166 -11 -53.499 -11c-17.333 0 -33.833 3.16699 -49.5 9.5s-29.334 15.166 -41.001 26.499
s-20.834 24.5 -27.501 39.5s-10 31.167 -10 48.5v330h67v-330c0 -16 5.83301 -29.833 17.5 -41.5s26.167 -17.5 43.5 -17.5s32 5.83301 44 17.5s18 25.834 18 42.501v198h67v-199c0 -16.667 5.83301 -30.667 17.5 -42s26.167 -17 43.5 -17s32 5.83301 44 17.5
s18 25.5 18 41.5v214c0 20.667 -4.5 35.167 -13.5 43.5s-20.5 12.5 -34.5 12.5h-56v60h59c19.333 0 31.833 1.66699 37.5 5s8.5 11.333 8.5 24l1 19h65v-20z" />
    <glyph glyph-name="oangthai" unicode="&#xe2d;" horiz-adv-x="500" 
d="M471 226c0 -31.333 -5.16699 -61.167 -15.5 -89.5s-25.166 -53.166 -44.499 -74.499s-42.5 -38.333 -69.5 -51s-56.833 -19 -89.5 -19s-62.667 6.16699 -90 18.5s-50.666 29 -69.999 50s-34.5 45.833 -45.5 74.5s-16.5 59 -16.5 91c0 2 0.166992 4.5 0.5 7.5
s0.5 8.16699 0.5 15.5h223v-64h-152c7.33301 -36.667 24.166 -67.334 50.499 -92.001s59.5 -37 99.5 -37c22 0 42.333 4.33301 61 13s34.667 20.667 48 36s23.833 33.333 31.5 54s11.5 43 11.5 67s-3.66699 46.5 -11 67.5s-17.666 39.167 -30.999 54.5
s-29.333 27.333 -48 36s-39.334 13 -62.001 13c-32.667 0 -62.167 -9.33301 -88.5 -28s-46.5 -47 -60.5 -85l-62 26c19.333 48 47.166 85.167 83.499 111.5s78.833 39.5 127.5 39.5c34 0 64.5 -6.33301 91.5 -19s50 -29.834 69 -51.501s33.5 -46.667 43.5 -75
s15 -58.166 15 -89.499z" />
    <glyph glyph-name="honokhukthai" unicode="&#xe2e;" horiz-adv-x="500" 
d="M415 388c18 -21.333 31.833 -45.835 41.5 -73.502s14.5 -57.5 14.5 -89.5c0 -31.333 -5.16699 -61.166 -15.5 -89.499s-25.166 -53.166 -44.499 -74.499s-42.5 -38.333 -69.5 -51s-56.833 -19 -89.5 -19s-62.667 6.16699 -90 18.5s-50.666 29 -69.999 50
s-34.5 45.833 -45.5 74.5s-16.5 59 -16.5 91c0 2.66699 0.166992 5.5 0.5 8.5s0.5 8.16699 0.5 15.5h223v-65h-152c7.33301 -36.667 24.166 -67.167 50.499 -91.5s59.5 -36.5 99.5 -36.5c22 0 42.333 4.33301 61 13s34.667 20.5 48 35.5s23.833 33 31.5 54
s11.5 43.5 11.5 67.5s-3.66699 46.5 -11 67.5s-17.666 39 -30.999 54s-29.333 26.833 -48 35.5s-39.334 13 -62.001 13c-32.667 0 -62.167 -9.5 -88.5 -28.5s-46.5 -46.833 -60.5 -83.5l-62 25c19.333 48 47.166 85.333 83.499 112s78.833 40 127.5 40
c42 0 78.667 -9.66699 110 -29l62 69l52 -44z" />
    <glyph glyph-name="paiyannoithai" unicode="&#xe2f;" horiz-adv-x="410" 
d="M303 0l-0.00195312 302c-29.333 -22 -63 -33 -101 -33c-23.333 0 -45.166 4.33301 -65.499 13s-38.166 21 -53.499 37s-27.333 35 -36 57s-13 46.667 -13 74h66c0 -36.667 10 -65.334 30 -86.001s44 -31 72 -31s51.833 10.333 71.5 31s29.5 49.334 29.5 86.001h67v-450
h-67z" />
    <glyph glyph-name="saraathai" unicode="&#xe30;" horiz-adv-x="214" 
d="M102 287c-20 0 -37 7.16895 -51 21.502s-21 31.166 -21 50.499v36h63v-36c0 -2.66699 1 -4.83398 3 -6.50098s3.66699 -2.5 5 -2.5h82v-62zM102 43.002c-20 0 -37 7.16895 -51 21.502s-21 31.166 -21 50.499v36h63v-36c0 -2.66699 1 -4.83398 3 -6.50098
s3.66699 -2.5 5 -2.5h82v-63h-81z" />
    <glyph glyph-name="maihanakatthai" unicode="&#xe31;" 
d="M-222 519c-19.333 0 -36 7.16797 -50 21.501s-21 31.166 -21 50.499v41h63v-41c0 -5.33301 2.66699 -8 8 -8h222v-63z" />
    <glyph glyph-name="saraaathai" unicode="&#xe32;" horiz-adv-x="340" 
d="M300 0l-66.002 -0.00195312v285c0 34.667 -8.5 61.334 -25.5 80.001s-42.5 28 -76.5 28c-17.333 0 -32.666 -2.66699 -45.999 -8s-27.333 -15.666 -42 -30.999l-46 46c21.333 20 42.5 34.333 63.5 43s44.833 13 71.5 13c28.667 0 53.5 -4.33301 74.5 -13
s38.333 -20.5 52 -35.5s23.834 -32.333 30.501 -52s10 -40.5 10 -62.5v-293z" />
    <glyph glyph-name="saraamthai" unicode="&#xe33;" horiz-adv-x="340" 
d="M-2 575c0 -19.333 -7 -36 -21 -50s-31 -21 -51 -21s-37 7 -51 21s-21 30.667 -21 50c0 20 7 37 21 51s31 21 51 21s37 -7 51 -21s21 -31 21 -51zM300 0l-67.001 -0.00195312v285c0 34.667 -8.5 61.334 -25.5 80.001s-42.5 28 -76.5 28c-16.667 0 -31.667 -2.66699 -45 -8
s-27.333 -15.666 -42 -30.999l-46 46c20.667 20 41.667 34.333 63 43s45.333 13 72 13c28.667 0 53.5 -4.33301 74.5 -13s38.333 -20.5 52 -35.5s23.834 -32.333 30.501 -52s10 -40.5 10 -62.5v-293zM-51.001 574.998c0 6.66699 -2.16699 12.167 -6.5 16.5
s-9.83301 6.5 -16.5 6.5s-12.334 -2.16699 -17.001 -6.5s-7 -9.83301 -7 -16.5s2.33301 -12.334 7 -17.001s10.334 -7 17.001 -7s12.167 2.33301 16.5 7s6.5 10.334 6.5 17.001z" />
    <glyph glyph-name="saraithai" unicode="&#xe34;" 
d="M-406 520v63h366v-63h-366z" />
    <glyph glyph-name="saraiithai" unicode="&#xe35;" 
d="M-406 520v63h303v60h63v-123h-366z" />
    <glyph glyph-name="sarauethai" unicode="&#xe36;" 
d="M-34 582c0 -17.333 -6.00195 -31.999 -18.002 -43.999s-26.333 -18 -43 -18h-311v63h249c0.666992 17.333 6.83398 31.666 18.501 42.999s25.834 17 42.501 17c17.333 0 32 -5.83301 44 -17.5s18 -26.167 18 -43.5zM-75.002 581.001
c0 5.33301 -2.16699 10.166 -6.5 14.499s-9.16602 6.5 -14.499 6.5s-10.166 -2.16699 -14.499 -6.5s-6.5 -9.16602 -6.5 -14.499s2.16699 -10.166 6.5 -14.499s9.16602 -6.5 14.499 -6.5s10.166 2.16699 14.499 6.5s6.5 9.16602 6.5 14.499z" />
    <glyph glyph-name="saraueethai" unicode="&#xe37;" 
d="M-406 520v63h198v60h62v-60h43v60h63v-123h-366z" />
    <glyph glyph-name="sarauthai" unicode="&#xe38;" 
d="M-103 -188v80h-40v64h68c10 0 18.333 -3.5 25 -10.5s10 -15.167 10 -24.5v-109h-63z" />
    <glyph glyph-name="sarauuthai" unicode="&#xe39;" 
d="M-40 -114c0 -12 -2.33105 -23.3311 -6.99805 -33.998s-10.834 -19.834 -18.501 -27.501s-16.667 -13.834 -27 -18.501s-21.5 -7 -33.5 -7c-24 0 -44.5 8.5 -61.5 25.5s-25.5 37.5 -25.5 61.5v6h-40v64h103v-70c0 -6.66699 2.16699 -12.334 6.5 -17.001
s9.83301 -7 16.5 -7c7.33301 0 13.166 2.33301 17.499 7s6.5 10.334 6.5 17.001v70h63v-70z" />
    <glyph glyph-name="phinthuthai" unicode="&#xe3a;" 
d="M-29 -81c0 -12 -4.33301 -22.333 -13 -31s-19 -13 -31 -13s-22.333 4.33301 -31 13s-13 19 -13 31s4.33301 22.333 13 31s19 13 31 13s22.333 -4.33301 31 -13s13 -19 13 -31z" />
    <glyph glyph-name="PUCR2005" unicode="&#xe3e;" 
 />
    <glyph glyph-name="bahtthai" unicode="&#xe3f;" horiz-adv-x="390" 
d="M372 155c0 -24 -4 -45.335 -12 -64.002s-19.333 -34.667 -34 -48s-31.834 -23.666 -51.501 -30.999s-40.834 -11.333 -63.501 -12v-81h-60v81h-113v528h113v76h60v-78c38.667 -5.33301 67.834 -21.166 87.501 -47.499s29.5 -58.5 29.5 -96.5c0 -20 -3 -37.833 -9 -53.5
s-16.333 -30.167 -31 -43.5c26.667 -12.667 47.334 -30 62.001 -52s22 -48 22 -78zM266 385.998c0 40.667 -18.333 66.335 -55 77.002v-157c19.333 5.33301 33.333 15.166 42 29.499s13 31.166 13 50.499zM151 467.999h-52v-166h52v166zM310 153.999
c0 16 -2.66699 29.332 -8 39.999s-12.5 19.334 -21.5 26.001s-19.5 11.5 -31.5 14.5s-24.667 5.16699 -38 6.5v-182c28 2 51.5 10.833 70.5 26.5s28.5 38.5 28.5 68.5zM151 241.998h-52v-183h52v183z" />
    <glyph glyph-name="saraethai" unicode="&#xe40;" horiz-adv-x="177" 
d="M55 0v450h67v-450h-67z" />
    <glyph glyph-name="saraaethai" unicode="&#xe41;" horiz-adv-x="324" 
d="M202 0v450h67v-450h-67zM55 0v450h67v-450h-67z" />
    <glyph glyph-name="saraothai" unicode="&#xe42;" horiz-adv-x="184" 
d="M64 587c-3.33301 0 -6.66699 -0.498047 -10 -1.49805s-5 -3.16699 -5 -6.5c0 -4 3.66699 -8 11 -12c18.667 -11.333 34 -23.833 46 -37.5s18 -32.834 18 -57.501v-472h-67v473c0 11.333 -4.16699 20.333 -12.5 27s-16.5 12.667 -24.5 18c-9.33301 6 -18 14.167 -26 24.5
s-12 23.166 -12 38.499c0 14.667 2.83301 26.5 8.5 35.5s13 16 22 21s18.5 8.33301 28.5 10s19.667 2.5 29 2.5h131v-63h-137z" />
    <glyph glyph-name="saraaimaimuanthai" unicode="&#xe43;" horiz-adv-x="184" 
d="M191 542c0 -16 -3.16602 -30.999 -9.49902 -44.999s-14.5 -26 -24.5 -36l-32 -32v-429h-67v456c4 4 9.66699 9.16699 17 15.5s14.666 13.5 21.999 21.5s13.666 16.167 18.999 24.5s8 16.5 8 24.5c0 12.667 -4.5 23.667 -13.5 33s-20.167 14 -33.5 14
s-24.666 -5.33301 -33.999 -16s-14 -27.334 -14 -50.001h-67c0 20 3 38.167 9 54.5s14.167 30.333 24.5 42s22.333 20.5 36 26.5s28.5 9 44.5 9s31 -3 45 -9s26.167 -14 36.5 -24s18.5 -21.833 24.5 -35.5s9 -28.5 9 -44.5z" />
    <glyph glyph-name="saraaimaimalaithai" unicode="&#xe44;" horiz-adv-x="184" 
d="M203 581c0 -15.333 -4.00293 -28.168 -12.0029 -38.501s-16.667 -18.5 -26 -24.5c-8 -5.33301 -16.167 -11.333 -24.5 -18s-12.5 -15.667 -12.5 -27v-473h-67v472c0 24.667 5.83301 43.834 17.5 57.501s27.167 26.167 46.5 37.5c7.33301 4 11 8 11 12
c0 3.33301 -1.66699 5.5 -5 6.5s-6.66602 1.5 -9.99902 1.5h-138v63h131c9.33301 0 19.333 -0.833008 30 -2.5s20.334 -5 29.001 -10s15.834 -12 21.501 -21s8.5 -20.833 8.5 -35.5z" />
    <glyph glyph-name="lakkhangyaothai" unicode="&#xe45;" horiz-adv-x="345" 
d="M300 -171l-66.002 -0.00195312v456c0 34.667 -8.5 61.334 -25.5 80.001s-42.5 28 -76.5 28c-17.333 0 -32.666 -2.66699 -45.999 -8s-27.333 -15.666 -42 -30.999l-46 46c21.333 20 42.5 34.333 63.5 43s44.833 13 71.5 13c28.667 0 53.5 -4.33301 74.5 -13
s38.333 -20.5 52 -35.5s23.834 -32.333 30.501 -52s10 -40.5 10 -62.5v-464z" />
    <glyph glyph-name="maiyamokthai" unicode="&#xe46;" horiz-adv-x="473" 
d="M349 -171l0.00292969 449.002c0 20.667 -4.83301 39.667 -14.5 57s-22.834 31.666 -39.501 42.999l-69 -69l-69 69c-16.667 -11.333 -29.834 -25.833 -39.501 -43.5s-14.5 -36.834 -14.5 -57.501c0 -16.667 3.66699 -32.667 11 -48s19.666 -32 36.999 -50l-46 -46
c-23.333 23.333 -40.5 46.833 -51.5 70.5s-16.5 48.167 -16.5 73.5c0 40 11.667 76 35 108s56 55.667 98 71l56 -56l57 56c42 -15.333 74.5 -38.833 97.5 -70.5s34.5 -67.5 34.5 -107.5v-449h-66z" />
    <glyph glyph-name="maitaikhuthai" unicode="&#xe47;" 
d="M-289 652c-10.667 0 -18.832 -3.83301 -24.499 -11.5s-8.5 -16.834 -8.5 -27.501c0 -10 2.83301 -18.833 8.5 -26.5s13.5 -11.5 23.5 -11.5c9.33301 0 17.166 3.5 23.499 10.5s9.5 19.167 9.5 36.5h59c0 -17.333 3.33301 -29.5 10 -36.5s14.334 -10.5 23.001 -10.5
c9.33301 0 17.166 3.5 23.499 10.5s9.5 19.167 9.5 36.5h61c0 -34 -9.16699 -60.333 -27.5 -79s-40.166 -28 -65.499 -28c-12.667 0 -24.334 2.33301 -35.001 7s-20 10.667 -28 18c-8 -7.33301 -17.333 -13.333 -28 -18s-22 -7 -34 -7c-28 0 -50.5 9.16699 -67.5 27.5
s-25.5 41.833 -25.5 70.5s8.5 52.334 25.5 71.001s39.5 28 67.5 28h249v-60h-249z" />
    <glyph glyph-name="maiekthai" unicode="&#xe48;" 
d="M-102 678v123h62v-123h-62z" />
    <glyph glyph-name="maithothai" unicode="&#xe49;" 
d="M-223 677l12 17.501l15.5 23l13 20.5c3.66699 6 5.5 9.66699 5.5 11c0 12 -4.66699 18 -14 18c-5.33301 0 -10 -2 -14 -6l-40 40c14.667 14 32.334 21 53.001 21c21.333 0 39.166 -6.83301 53.499 -20.5s21.5 -30.5 21.5 -50.5c0 -6.66699 -1.33301 -11.334 -4 -14.001
c1.33301 0 3 0.166992 5 0.5s3.66699 0.5 5 0.5h5h106v-61h-223z" />
    <glyph glyph-name="maitrithai" unicode="&#xe4a;" 
d="M-129 678l26.999 49.998c1.33301 1.33301 2 2.83301 2 4.5v3.5c0 3.33301 -1.33301 6.5 -4 9.5s-5.66699 4.5 -9 4.5c-2.66699 0 -6 -1.16699 -10 -3.5s-6 -8.83301 -6 -19.5h-52c0 9.33301 -1.33301 15.5 -4 18.5s-6.33398 4.5 -11.001 4.5
c-4 0 -7.16699 -1.66699 -9.5 -5s-3.5 -6.66602 -3.5 -9.99902c0 -1.33301 0.5 -4.33301 1.5 -9s6.5 -9.66699 16.5 -15l-40 -39c-13.333 11.333 -22.666 22 -27.999 32s-8 20.333 -8 31c0 19.333 7 36 21 50s30.667 21 50 21c7.33301 0 15 -1.5 23 -4.5
s14 -6.83301 18 -11.5c4 4.66699 9.83301 8.5 17.5 11.5s15.5 4.5 23.5 4.5c19.333 0 35.833 -6.66699 49.5 -20s20.834 -29.666 21.501 -48.999h66v-59h-152z" />
    <glyph glyph-name="maichattawathai" unicode="&#xe4b;" 
d="M-40 722v-44h-63v43h-42v54h42v44h63v-43h42v-54h-42z" />
    <glyph glyph-name="thanthakhatthai" unicode="&#xe4c;" 
d="M-85 701c-1.33301 0 -3.16602 -0.833984 -5.49902 -2.50098s-3.5 -4.16699 -3.5 -7.5c0 -2 0.833008 -4.5 2.5 -7.5s6.16699 -7.5 13.5 -13.5l-42 -41c-13.333 12.667 -22.333 23.834 -27 33.501s-7 19.167 -7 28.5c0 19.333 6.66699 35.833 20 49.5
s29.666 20.5 48.999 20.5h70v-60h-70z" />
    <glyph glyph-name="nikhahitthai" unicode="&#xe4d;" 
d="M-2 575c0 -19.333 -7 -36 -21 -50s-31 -21 -51 -21s-37 7 -51 21s-21 30.667 -21 50c0 20 7 37 21 51s31 21 51 21s37 -7 51 -21s21 -31 21 -51zM-51 575c0 6.66699 -2.16699 12.167 -6.5 16.5s-9.83301 6.5 -16.5 6.5s-12.334 -2.16699 -17.001 -6.5
s-7 -9.83301 -7 -16.5s2.33301 -12.334 7 -17.001s10.334 -7 17.001 -7s12.167 2.33301 16.5 7s6.5 10.334 6.5 17.001z" />
    <glyph glyph-name="yamakkanthai" unicode="&#xe4e;" 
d="M-61 680c-6 6 -11.165 10.1631 -15.498 12.4961s-8.83301 3.5 -13.5 3.5c-9.33301 0 -17.333 -3.16699 -24 -9.5s-10 -14.166 -10 -23.499s3.66699 -17.166 11 -23.499s18.666 -9.5 33.999 -9.5v-47c-15.333 0 -26.666 -3.16699 -33.999 -9.5s-11 -14.166 -11 -23.499
s3.66699 -17.166 11 -23.499s18.666 -9.5 33.999 -9.5v-47c-28 0 -50.5 7.83301 -67.5 23.5s-25.5 34.5 -25.5 56.5s8 40.667 24 56c-16 16 -24 35 -24 57s7.83301 40.833 23.5 56.5s35.167 23.5 58.5 23.5c21.333 0 42.666 -10 63.999 -30z" />
    <glyph glyph-name="fongmanthai" unicode="&#xe4f;" horiz-adv-x="530" 
d="M485 212c0 -30 -5.83301 -58.333 -17.5 -85s-27.5 -50 -47.5 -70s-43.333 -35.833 -70 -47.5s-55 -17.5 -85 -17.5s-58.333 5.83301 -85 17.5s-50 27.5 -70 47.5s-35.833 43.333 -47.5 70s-17.5 55 -17.5 85s5.83301 58.333 17.5 85s27.5 50 47.5 70
s43.333 35.833 70 47.5s55 17.5 85 17.5s58.333 -5.83301 85 -17.5s50 -27.5 70 -47.5s35.833 -43.333 47.5 -70s17.5 -55 17.5 -85zM383 212c0 -16 -3.16699 -31.167 -9.5 -45.5s-14.833 -26.833 -25.5 -37.5s-23.167 -19.167 -37.5 -25.5s-29.5 -9.5 -45.5 -9.5
s-31.167 3.16699 -45.5 9.5s-26.833 14.833 -37.5 25.5s-19.167 23.167 -25.5 37.5s-9.5 29.5 -9.5 45.5s3.16699 31.167 9.5 45.5s14.833 26.833 25.5 37.5s23.167 19.167 37.5 25.5s29.5 9.5 45.5 9.5s31.167 -3.16699 45.5 -9.5s26.833 -14.833 37.5 -25.5
s19.167 -23.167 25.5 -37.5s9.5 -29.5 9.5 -45.5zM328 212c0 17.333 -6.16699 32.166 -18.5 44.499s-27.166 18.5 -44.499 18.5s-32.166 -6.16699 -44.499 -18.5s-18.5 -27.166 -18.5 -44.499s6.16699 -32.166 18.5 -44.499s27.166 -18.5 44.499 -18.5
s32.166 6.16699 44.499 18.5s18.5 27.166 18.5 44.499zM428 211c0 22.667 -4.33203 43.8359 -12.999 63.5029s-20.334 37 -35.001 52s-31.834 26.833 -51.501 35.5s-40.834 13 -63.501 13s-43.834 -4.33301 -63.501 -13s-36.834 -20.334 -51.501 -35.001
s-26.334 -31.834 -35.001 -51.501s-13 -40.834 -13 -63.501s4.33301 -43.834 13 -63.501s20.334 -36.834 35.001 -51.501s31.834 -26.334 51.501 -35.001s40.834 -13 63.501 -13s43.834 4.33301 63.501 13s36.834 20.334 51.501 35.001s26.167 31.834 34.5 51.501
s12.5 40.834 12.5 63.501z" />
    <glyph glyph-name="zerothai" unicode="&#xe50;" horiz-adv-x="442" 
d="M423 188c0 -27.333 -5.33301 -53 -16 -77s-25 -44.833 -43 -62.5s-39.167 -31.667 -63.5 -42s-50.5 -15.5 -78.5 -15.5s-54.167 5.16699 -78.5 15.5s-45.5 24.333 -63.5 42s-32.333 38.5 -43 62.5s-16 49.667 -16 77s5.33301 53 16 77s25 44.833 43 62.5
s39.167 31.667 63.5 42s50.5 15.5 78.5 15.5s54.167 -5.16699 78.5 -15.5s45.5 -24.333 63.5 -42s32.333 -38.5 43 -62.5s16 -49.667 16 -77zM356 188c0 18 -3.5 35 -10.5 51s-16.5 30 -28.5 42s-26.167 21.5 -42.5 28.5s-33.833 10.5 -52.5 10.5s-36.167 -3.5 -52.5 -10.5
s-30.5 -16.5 -42.5 -28.5s-21.5 -26 -28.5 -42s-10.5 -33 -10.5 -51s3.5 -35 10.5 -51s16.5 -30 28.5 -42s26.167 -21.5 42.5 -28.5s33.833 -10.5 52.5 -10.5s36.167 3.5 52.5 10.5s30.5 16.5 42.5 28.5s21.5 26 28.5 42s10.5 33 10.5 51z" />
    <glyph glyph-name="onethai" unicode="&#xe51;" horiz-adv-x="442" 
d="M418 188c0 -27.333 -5.33008 -53 -15.9971 -77s-25 -44.833 -43 -62.5s-39.167 -31.667 -63.5 -42s-50.5 -15.5 -78.5 -15.5c-54.667 0 -106.667 23.667 -156 71l47 46c19.333 -18.667 37.666 -32 54.999 -40s35.333 -12 54 -12s36.167 3.5 52.5 10.5
s30.5 16.5 42.5 28.5s21.5 26 28.5 42s10.5 33 10.5 51s-3.5 35 -10.5 51s-16.5 30 -28.5 42s-26.167 21.5 -42.5 28.5s-33.833 10.5 -52.5 10.5c-28 0 -52.833 -7 -74.5 -21s-37.167 -31 -46.5 -51c-4.66699 -9.33301 -5.5 -16.166 -2.5 -20.499s7.16699 -6.5 12.5 -6.5h66
v-65h-68c-20 0 -35.833 4.16699 -47.5 12.5s-19.834 18.833 -24.501 31.5s-6.33398 26.167 -5.00098 40.5s5 27.166 11 38.499c15.333 30.667 39 56 71 76s68 30 108 30c28 0 54.167 -5.16699 78.5 -15.5s45.5 -24.333 63.5 -42s32.333 -38.5 43 -62.5s16 -49.667 16 -77z
" />
    <glyph glyph-name="twothai" unicode="&#xe52;" horiz-adv-x="510" 
d="M474 207c0 -32.667 -5.33496 -61.9971 -16.002 -87.9971s-25.5 -48.167 -44.5 -66.5s-41.833 -32.5 -68.5 -42.5s-56 -15 -88 -15c-33.333 0 -63.333 5.33301 -90 16s-49.5 25.5 -68.5 44.5s-33.5 41.333 -43.5 67s-15 53.167 -15 82.5v259h67v-259
c0 -20.667 3.33301 -39.834 10 -57.501s16.334 -33 29.001 -46s28.334 -23.167 47.001 -30.5s40 -11 64 -11c46 0 82.5 13 109.5 39s40.5 62 40.5 108c0 7.33301 -0.166992 17.5 -0.5 30.5s-1.83301 25.667 -4.5 38s-6.83398 23.166 -12.501 32.499s-13.834 14 -24.501 14
c-9.33301 0 -17.166 -3 -23.499 -9s-9.5 -13.667 -9.5 -23v-36h-66v36c0 9.33301 -3.33301 17 -10 23s-15.667 9 -27 9s-20.333 -3.66699 -27 -11s-10 -16.666 -10 -27.999c0 -6 2.33301 -12.333 7 -19s15.667 -14.667 33 -24l-50 -49c-21.333 15.333 -36 30.666 -44 45.999
s-12.333 30.666 -13 45.999c0 12.667 2.33301 25.334 7 38.001s11.5 24 20.5 34s19.833 18 32.5 24s27.334 9 44.001 9c13.333 0 26 -2.5 38 -7.5s22.667 -11.5 32 -19.5c9.33301 8 20 14.5 32 19.5s24.667 7.5 38 7.5c24.667 0 44 -6.5 58 -19.5s24.5 -28.833 31.5 -47.5
s11.333 -38.334 13 -59.001s2.5 -39 2.5 -55z" />
    <glyph glyph-name="threethai" unicode="&#xe53;" horiz-adv-x="509" 
d="M486 195c0 -46 -12.833 -87.5039 -38.5 -124.504s-63.5 -65.167 -113.5 -84.5l-31 58c40 14.667 69.5 35 88.5 61s28.5 56 28.5 90c0 24.667 -6 47.334 -18 68.001s-28 37 -48 49l-94 -94l-98 98c-24.667 -14 -43 -33 -55 -57s-18 -49 -18 -75
c0 -17.333 2.5 -33.666 7.5 -48.999s12 -28.833 21 -40.5s20 -21.167 33 -28.5s27.5 -11.333 43.5 -12c2.66699 0 6.66699 1 12 3s13.666 6.66699 24.999 14l27 -60c-14.667 -7.33301 -26.834 -12.5 -36.501 -15.5s-18.5 -4.5 -26.5 -4.5
c-28 0.666992 -52.667 6.83398 -74 18.501s-39.166 26.667 -53.499 45s-25.166 38.833 -32.499 61.5s-11 45.667 -11 69c0 20.667 2.83301 41.334 8.5 62.001s14.5 40.167 26.5 58.5s27.667 34.833 47 49.5s42.666 26.667 69.999 36l84 -83l82 81
c44.667 -17.333 79.834 -43 105.501 -77s38.5 -73 38.5 -117z" />
    <glyph glyph-name="fourthai" unicode="&#xe54;" horiz-adv-x="460" 
d="M433 346c-5.33301 -7.33301 -12.3311 -13.333 -20.998 -18s-18.667 -7 -30 -7h-157c-18.667 0 -36.167 -3.5 -52.5 -10.5s-30.666 -16.5 -42.999 -28.5s-22 -26 -29 -42s-10.5 -33 -10.5 -51s3.5 -35 10.5 -51s16.667 -29.833 29 -41.5s26.666 -21 42.999 -28
s33.833 -10.5 52.5 -10.5c27.333 0 52.666 7 75.999 21l-55 54c-16 16 -26.667 32.667 -32 50s1 34.666 19 51.999l31 31l48 -46l-31 -29l164 -161l-47 -46l-48 47c-18 -12 -37.667 -21.333 -59 -28s-43.333 -10 -66 -10c-28 0 -54.167 5.16699 -78.5 15.5
s-45.5 24.333 -63.5 42s-32.333 38.334 -43 62.001s-16 49.167 -16 76.5s5.33301 53 16 77s25 44.833 43 62.5s39.167 31.667 63.5 42s50.5 15.5 78.5 15.5h154c1.33301 0 2.66602 0.666992 3.99902 2l56 74l55 -37z" />
    <glyph glyph-name="fivethai" unicode="&#xe55;" horiz-adv-x="460" 
d="M433 347c-12 -16 -28.998 -24 -50.998 -24h-158c-18.667 0 -36.167 -3.5 -52.5 -10.5s-30.5 -16.5 -42.5 -28.5s-21.5 -26 -28.5 -42s-10.5 -33 -10.5 -51s3.5 -35 10.5 -51s16.667 -30 29 -42s26.666 -21.5 42.999 -28.5s33.833 -10.5 52.5 -10.5
c13.333 0 26.5 1.83301 39.5 5.5s25.167 8.83398 36.5 15.501l-55 54c-16 16 -26.667 32.667 -32 50s1 34.666 19 51.999l31 31l48 -46l-31 -29l164 -162l-47 -46l-48 49c-37.333 -26 -79 -39 -125 -39c-28 0 -54.167 5.16699 -78.5 15.5s-45.5 24.333 -63.5 42
s-32.333 38.5 -43 62.5s-16 49.667 -16 77c0 22.667 3.66699 44.167 11 64.5s17.5 38.833 30.5 55.5s28.667 31 47 43s38.166 21 59.499 27c-2 6 -3 12.333 -3 19c0 12 2.33301 22.833 7 32.5s10.834 18.167 18.501 25.5s16.667 13 27 17s21.166 6 32.499 6
c22 0 41.5 -7.5 58.5 -22.5s25.5 -34.5 25.5 -58.5c0 -6 -0.333008 -10 -1 -12h41c2 0 3.66699 0.666992 5 2l56 74l55 -37zM287.002 400c0 9.33301 -3.16699 17.166 -9.5 23.499s-14.166 9.5 -23.499 9.5s-17.333 -3.16699 -24 -9.5s-10 -14.166 -10 -23.499
s3.33301 -17 10 -23s14.667 -9 24 -9s17.166 3 23.499 9s9.5 13.667 9.5 23z" />
    <glyph glyph-name="sixthai" unicode="&#xe56;" horiz-adv-x="435" 
d="M413 193c0 -27.333 -5.16699 -52.9951 -15.5 -76.9951s-24.666 -45 -42.999 -63s-39.666 -32.333 -63.999 -43s-50.5 -16 -78.5 -16c-36 0 -67.5 8 -94.5 24s-48.833 35.333 -65.5 58c-12.667 16.667 -19.5 31.834 -20.5 45.501s1.66699 26.5 8 38.5s15 23.333 26 34
l33.5 33l47 -46c-3.33301 -3.33301 -8.33301 -7.33301 -15 -12s-12.667 -9.83398 -18 -15.501s-9.33301 -11.834 -12 -18.501s-1.66699 -13.334 3 -20.001c11.333 -16 26.666 -29.167 45.999 -39.5s40 -15.5 62 -15.5c18.667 0 36.167 3.5 52.5 10.5
s30.666 16.5 42.999 28.5s22 26.167 29 42.5s10.5 33.5 10.5 51.5c0 25.333 -6.83301 48.666 -20.5 69.999s-31.167 37.666 -52.5 48.999l-86 -87l-160 159l47 46l113 -113l70 70c23.333 -6.66699 44.5 -16.334 63.5 -29.001s35.333 -27.5 49 -44.5
s24.167 -35.833 31.5 -56.5s11 -42 11 -64z" />
    <glyph glyph-name="seventhai" unicode="&#xe57;" horiz-adv-x="515" 
d="M486 197c0 -46 -12.833 -87.502 -38.5 -124.502s-63.5 -65.167 -113.5 -84.5l-31 58c40 14.667 69.5 35 88.5 61s28.5 56 28.5 90c0 23.333 -5.66699 45.5 -17 66.5s-27.666 38.167 -48.999 51.5l-94 -95l-98 98c-24.667 -13.333 -43 -32 -55 -56s-18 -49 -18 -75
c0 -17.333 2.5 -33.666 7.5 -48.999s12 -28.833 21 -40.5s20 -21.167 33 -28.5s27.5 -11.333 43.5 -12c2 0 5.83301 1 11.5 3s14.167 6.66699 25.5 14l27 -61c-14.667 -7.33301 -26.834 -12.5 -36.501 -15.5s-18.834 -4.16699 -27.501 -3.5
c-28 0.666992 -52.667 6.83398 -74 18.501s-39.166 26.5 -53.499 44.5s-25.166 38.333 -32.499 61s-11 45.667 -11 69c0 20.667 2.83301 41.334 8.5 62.001s14.667 40.167 27 58.5s28.166 35 47.499 50s42.666 27.167 69.999 36.5l84 -84l82 82
c16 -6.66699 30.833 -13.834 44.5 -21.501s24.834 -18.167 33.501 -31.5v125h66v-267z" />
    <glyph glyph-name="eightthai" unicode="&#xe58;" horiz-adv-x="518" 
d="M472 347c-5.33301 -7.33301 -12.498 -13.3311 -21.498 -17.998s-19.167 -7 -30.5 -7h-189c-19.333 0 -37.666 -3.5 -54.999 -10.5s-32.333 -16.833 -45 -29.5s-22.667 -27.334 -30 -44.001s-11 -34.667 -11 -54c0 -26 6.66699 -49.667 20 -71s30.666 -38 51.999 -50
l98 96l102 -100c18 3.33301 33.167 12.166 45.5 26.499s18.5 30.833 18.5 49.5c0 21.333 -8.5 39.666 -25.5 54.999s-41.5 23 -73.5 23v65c24.667 0 47.167 -3.66699 67.5 -11s37.833 -17.5 52.5 -30.5s25.834 -28.167 33.501 -45.5s11.5 -36 11.5 -56
c0 -19.333 -3.83301 -37.666 -11.5 -54.999s-18.334 -32.5 -32.001 -45.5s-29.834 -23.167 -48.501 -30.5s-39 -11 -61 -11l-79 77l-84 -82c-46.667 15.333 -83.834 40.333 -111.501 75s-41.5 75 -41.5 121c0 28 5.5 54.333 16.5 79s25.833 46.167 44.5 64.5
s40.667 32.833 66 43.5s52.333 16 81 16h187c0.666992 0 1.66699 1 3 3l57 74l55 -37z" />
    <glyph glyph-name="ninethai" unicode="&#xe59;" horiz-adv-x="526" 
d="M540 430l-20.001 -32.5c-7.33301 -12.333 -15.166 -24 -23.499 -35s-17.666 -20.5 -27.999 -28.5s-21.5 -12.333 -33.5 -13c-13.333 -0.666992 -23.833 -0.666992 -31.5 0s-14.5 0.333984 -20.5 -0.999023s-12 -4.33301 -18 -9s-14 -13 -24 -25l171 -265l-54 -33
l-207 320c-7.33301 9.33301 -19 14 -35 14c-15.333 0 -30.333 -3.5 -45 -10.5s-27.834 -16.5 -39.501 -28.5s-21.167 -26 -28.5 -42s-11 -33 -11 -51s3.5 -35 10.5 -51s16.5 -30 28.5 -42s26.167 -21.333 42.5 -28s33.833 -10 52.5 -10c9.33301 0 19 1 29 3
s23.333 6.66699 40 14l30 -58c-21.333 -9.33301 -39.5 -15.833 -54.5 -19.5s-29.833 -5.5 -44.5 -5.5c-28 0 -54.167 5.16699 -78.5 15.5s-45.5 24.333 -63.5 42s-32.333 38.5 -43 62.5s-16 49.667 -16 77c0 26.667 5.33301 52 16 76s24.667 45 42 63s37.5 32.167 60.5 42.5
s47.167 15.5 72.5 15.5c18 0 35.167 -3.83301 51.5 -11.5s29.166 -19.167 38.499 -34.5c10.667 11.333 20.334 20 29.001 26s17.5 10.167 26.5 12.5s18.667 3.66602 29 3.99902s22.833 0.5 37.5 0.5c4.66699 0 9.5 2.33301 14.5 7s10 10.667 15 18s10 15.5 15 24.5
s10.167 17.833 15.5 26.5z" />
    <glyph glyph-name="angkhankhuthai" unicode="&#xe5a;" horiz-adv-x="557" 
d="M303 0l-0.00195312 302c-29.333 -22 -63 -33 -101 -33c-23.333 0 -45.166 4.33301 -65.499 13s-38.166 21 -53.499 37s-27.333 35 -36 57s-13 46.667 -13 74h66c0 -36.667 10 -65.334 30 -86.001s44 -31 72 -31s51.833 10.333 71.5 31s29.5 49.334 29.5 86.001h67v-450
h-67zM516.998 450v-450h-67v450h67z" />
    <glyph glyph-name="khomutthai" unicode="&#xe5b;" horiz-adv-x="1006" 
d="M772 199l-13.5049 -22.498c-4.33301 -7 -8.16602 -13.5 -11.499 -19.5l-19 -30.5c-6 -9.66699 -10 -15.5 -12 -17.5c-2 5.33301 -6.33301 13.833 -13 25.5l-21.5 37l-22 37c-7 11.667 -11.833 19.5 -14.5 23.5c-2 -5.33301 -6.5 -14.333 -13.5 -27l-24 -41.5l-27 -44.5
c-9 -14.667 -16.833 -26.667 -23.5 -36c-3.33301 7.33301 -9 18 -17 32l-25.5 43.5l-25.5 42.5c-8 13.333 -14 22.666 -18 27.999c-3.33301 -24 -11 -47.5 -23 -70.5s-27.5 -43.333 -46.5 -61s-40.667 -31.834 -65 -42.501s-50.5 -16 -78.5 -16
c-68.667 0 -121.167 17.333 -157.5 52s-54.5 81 -54.5 139c0 28.667 4.66699 54 14 76s21.5 40.5 36.5 55.5s31.833 26.167 50.5 33.5s37.667 11 57 11c18 0 35.167 -2.83301 51.5 -8.5s30.5 -14.5 42.5 -26.5s20.833 -26.833 26.5 -44.5s6.83398 -38.5 3.50098 -62.5
l-58 -5c2 14 1.5 26.333 -1.5 37s-7.66699 19.667 -14 27s-14.166 12.833 -23.499 16.5s-19 5.5 -29 5.5c-10.667 0 -21.5 -2.33301 -32.5 -7s-20.833 -11.667 -29.5 -21s-15.834 -21.166 -21.501 -35.499s-8.5 -31.5 -8.5 -51.5c0 -23.333 3.83301 -43.333 11.5 -60
s18.334 -30.167 32.001 -40.5s29.334 -18 47.001 -23s36.5 -7.5 56.5 -7.5c26.667 0 51.334 7.33301 74.001 22s41 33 55 55s22.833 46.167 26.5 72.5s0.166992 51.166 -10.5 74.499l44 30c8 -7.33301 17.833 -18 29.5 -32s23.5 -29 35.5 -45s22.833 -31.333 32.5 -46
s16.5 -26 20.5 -34c2 2.66699 5 8.5 9 17.5l13 29.5l13 30.5c4 9.66699 6.66699 16.5 8 20.5l43 25c2.66699 -2.66699 7.5 -8.83398 14.5 -18.501l22.5 -31c8 -11 15.167 -21.333 21.5 -31s10.5 -16.5 12.5 -20.5c0.666992 0.666992 2 3.33398 4 8.00098
s4.33301 9.66699 7 15l10 20h213v-62h-183z" />
    <glyph glyph-name="ZWSP" unicode="&#x200b;" 
 />
    <glyph glyph-name="endash" unicode="&#x2013;" horiz-adv-x="380" 
d="M15 145v60h350v-60h-350z" />
    <glyph glyph-name="emdash" unicode="&#x2014;" horiz-adv-x="760" 
d="M15 145v60h730v-60h-730z" />
    <glyph glyph-name="quoteleft" unicode="&#x2018;" horiz-adv-x="188" 
d="M141 568c-13.333 -8.66699 -24.167 -17.1689 -32.5 -25.502s-16.5 -19.166 -24.5 -32.499c17.333 -1.33301 30.333 -6.16602 39 -14.499s13 -18.166 13 -29.499c0 -12 -4.5 -22.667 -13.5 -32s-20.167 -14 -33.5 -14c-18 0 -31.333 6.33301 -40 19s-13 26 -13 40
c0 17.333 6.66699 36.166 20 56.499s34 39.833 62 58.5z" />
    <glyph glyph-name="quoteright" unicode="&#x2019;" horiz-adv-x="188" 
d="M138 532c0 -17.333 -6.66602 -36.165 -19.999 -56.498s-34 -39.833 -62 -58.5l-24 26c13.333 8 24.166 16.333 32.499 25s16.833 19.667 25.5 33c-17.333 1.33301 -30.5 6.16602 -39.5 14.499s-13.5 18.166 -13.5 29.499c0 12 4.5 22.667 13.5 32s20.167 14 33.5 14
c18 0 31.5 -6.33301 40.5 -19s13.5 -26 13.5 -40z" />
    <glyph glyph-name="quotedblleft" unicode="&#x201c;" horiz-adv-x="308" 
d="M276 568c-13.333 -8.66699 -24.167 -17.1689 -32.5 -25.502s-16.5 -19.166 -24.5 -32.499c17.333 -1.33301 30.333 -6.16602 39 -14.499s13 -18.166 13 -29.499c0 -12 -4.5 -22.667 -13.5 -32s-20.167 -14 -33.5 -14c-18 0 -31.333 6.33301 -40 19s-13 26 -13 40
c0 17.333 6.66699 36.166 20 56.499s34 39.833 62 58.5zM140.999 567.998c-13.333 -8.66699 -24.167 -17.1689 -32.5 -25.502s-16.5 -19.166 -24.5 -32.499c17.333 -1.33301 30.333 -6.16602 39 -14.499s13 -18.166 13 -29.499c0 -12 -4.5 -22.667 -13.5 -32
s-20.167 -14 -33.5 -14c-18 0 -31.333 6.33301 -40 19s-13 26 -13 40c0 17.333 6.66699 36.166 20 56.499s34 39.833 62 58.5z" />
    <glyph glyph-name="quotedblright" unicode="&#x201d;" horiz-adv-x="315" 
d="M271 532c0 -17.333 -6.66602 -36.165 -19.999 -56.498s-34 -39.833 -62 -58.5l-23 26c12.667 8 23.167 16.333 31.5 25s17.166 19.667 26.499 33c-17.333 1.33301 -30.5 6.16602 -39.5 14.499s-13.5 18.166 -13.5 29.499c0 12 4.5 22.667 13.5 32s20.167 14 33.5 14
c18 0 31.333 -6.33301 40 -19s13 -26 13 -40zM136.001 532.001c0 -17.333 -6.66602 -36.165 -19.999 -56.498s-34 -39.833 -62 -58.5l-23 26c12.667 8 23.167 16.333 31.5 25s17.166 19.667 26.499 33c-17.333 1.33301 -30.5 6.16602 -39.5 14.499
s-13.5 18.166 -13.5 29.499c0 12 4.5 22.667 13.5 32s20.167 14 33.5 14c18 0 31.333 -6.33301 40 -19s13 -26 13 -40z" />
    <glyph glyph-name="bullet" unicode="&#x2022;" horiz-adv-x="381" 
d="M368 200c0 -24.667 -4.66699 -47.834 -14 -69.501s-22 -40.5 -38 -56.5s-34.833 -28.667 -56.5 -38s-44.834 -14 -69.501 -14s-47.834 4.66699 -69.501 14s-40.5 22 -56.5 38s-28.667 34.833 -38 56.5s-14 44.834 -14 69.501s4.66699 47.834 14 69.501s22 40.5 38 56.5
s34.833 28.667 56.5 38s44.834 14 69.501 14s47.834 -4.66699 69.501 -14s40.5 -22 56.5 -38s28.667 -34.833 38 -56.5s14 -44.834 14 -69.501z" />
    <glyph glyph-name="Euro" unicode="&#x20ac;" horiz-adv-x="556" 
d="M516 51c-30 -22 -58.1689 -37.167 -84.502 -45.5s-54.833 -12.5 -85.5 -12.5c-28.667 0 -56.167 4.33301 -82.5 13s-50.666 21 -72.999 37s-42.166 34.833 -59.499 56.5s-31 45.5 -41 71.5h-69v63h54c-0.666992 4.66699 -1.16699 9.33398 -1.5 14.001
s-0.5 9.66699 -0.5 15v12c0 4 0.333008 7.66699 1 11h-53v63h66c9.33301 26.667 22.5 51.5 39.5 74.5s36.833 42.667 59.5 59s47.667 29.166 75 38.499s56 14 86 14c28 0 55.667 -4.16699 83 -12.5s56 -23.833 86 -46.5l-37 -55c-26.667 20 -50.834 32.833 -72.501 38.5
s-42.167 8.5 -61.5 8.5c-40 0 -76 -11.167 -108 -33.5s-56.333 -50.833 -73 -85.5h182v-63h-201c-0.666992 -4 -1.16699 -8.16699 -1.5 -12.5s-0.5 -8.83301 -0.5 -13.5s0.166992 -9 0.5 -13s0.833008 -8.33301 1.5 -13h201v-63h-179c17.333 -32 41.833 -58.667 73.5 -80
s66.5 -32 104.5 -32c19.333 0 39.833 3 61.5 9s45.834 19 72.501 39z" />
    <glyph glyph-name="trademark" unicode="&#x2122;" horiz-adv-x="574" 
d="M513 214l-41 213l-83 -212h-20l-84 213l-42 -214h-41l62 314h24l90 -230l91 230h23l62 -314h-41zM146 488v-269h-41v269h-72v41h185v-41h-72z" />
    <glyph glyph-name="uni25CC" unicode="&#x25cc;" horiz-adv-x="670" 
d="M259 179l-48 -15l17 47c8.66699 -12 19 -22.667 31 -32zM312 413l23 45l22 -44c-3.33301 0.666992 -6.83301 1 -10.5 1h-10.5c-4 0 -8 -0.166992 -12 -0.5s-8 -0.833008 -12 -1.5zM355 156l-20 -42l-21 42c3.33301 -0.666992 7 -1.16699 11 -1.5s7.66699 -0.5 11 -0.5
s6.5 0.166992 9.5 0.5s6.16699 0.833008 9.5 1.5zM465 307l42 -22l-42 -19c0.666992 3.33301 1.16699 6.5 1.5 9.5s0.5 6.16699 0.5 9.5s-0.166992 7 -0.5 11s-0.833008 7.66699 -1.5 11zM208 264l-45 23l45 22c-0.666992 -4 -1.16699 -8 -1.5 -12s-0.5 -8 -0.5 -12
c0 -3.33301 0.166992 -6.83301 0.5 -10.5s0.833008 -7.16699 1.5 -10.5zM231 363l-13 46l45 -16c-12 -7.33301 -22.667 -17.333 -32 -30zM440 205l12 -41l-41 13c12 8.66699 21.667 18 29 28zM410 393l49 16l-17 -47c-9.33301 12 -20 22.333 -32 31z" />
    <glyph glyph-name="thothannobasethai" unicode="&#xf700;" horiz-adv-x="411" 
d="M334 387c11.333 -15.333 20.335 -32.001 27.002 -50.001s10 -36.667 10 -56s-3.66699 -39.333 -11 -60l-83 -221h-70l-100 285h70l66 -190l54 147c2 6.66699 3.66699 13.167 5 19.5s2 12.833 2 19.5c0 14.667 -3 28.667 -9 42s-14 25 -24 35s-21.833 17.833 -35.5 23.5
s-28.5 8.5 -44.5 8.5c-28 0 -52.333 -9.16699 -73 -27.5s-33.334 -44.5 -38.001 -78.5h-67c2.66699 26 9.16699 49.5 19.5 70.5s23.333 39 39 54s33.667 26.5 54 34.5s42.166 12 65.499 12c17.333 0 33.5 -2.16699 48.5 -6.5s29.167 -10.166 42.5 -17.499l54 61l52 -44z" />
    <glyph glyph-name="saraileftthai" unicode="&#xf701;" 
d="M-433 520v63h290v-63h-290z" />
    <glyph glyph-name="saraiileftthai" unicode="&#xf702;" 
d="M-433 520v63h226v60h64v-123h-290z" />
    <glyph glyph-name="saraueleftthai" unicode="&#xf703;" 
d="M-134 582c0 -17.333 -6.00195 -31.999 -18.002 -43.999s-26.333 -18 -43 -18h-238v63h176c0.666992 17.333 6.83398 31.666 18.501 42.999s25.834 17 42.501 17c17.333 0 32 -5.83301 44 -17.5s18 -26.167 18 -43.5zM-175.002 581.001
c0 5.33301 -2.16699 10.166 -6.5 14.499s-9.16602 6.5 -14.499 6.5s-10.166 -2.16699 -14.499 -6.5s-6.5 -9.16602 -6.5 -14.499s2.16699 -10.166 6.5 -14.499s9.16602 -6.5 14.499 -6.5s10.166 2.16699 14.499 6.5s6.5 9.16602 6.5 14.499z" />
    <glyph glyph-name="saraueeleftthai" unicode="&#xf704;" 
d="M-433 520v63h123v60h62v-60h43v60h62v-123h-290z" />
    <glyph glyph-name="maieklowleftthai" unicode="&#xf705;" 
d="M-255 519v151h65v-150z" />
    <glyph glyph-name="maitholowleftthai" unicode="&#xf706;" 
d="M-349 519l13.001 17.998l16 22c5.33301 7.33301 9.83301 13.833 13.5 19.5s5.5 9.5 5.5 11.5c0 11.333 -5.66699 17 -17 17c-5.33301 0 -9.33301 -2 -12 -6l-41 41c8 8 16.667 13.667 26 17s18.666 5 27.999 5c22 0 39.833 -6.66699 53.5 -20s20.5 -30 20.5 -50
c0 -3.33301 -0.5 -6.16602 -1.5 -8.49902s-1.83301 -4.16602 -2.5 -5.49902h15h106v-60z" />
    <glyph glyph-name="maitrilowleftthai" unicode="&#xf707;" 
d="M-269 519l20.5049 35.499c7 12.333 10.5 22.833 10.5 31.5c0 6.66699 -2.33301 11.834 -7 15.501s-9.66699 5.5 -15 5.5c-4 0 -9.16699 -2 -15.5 -6s-9.5 -13 -9.5 -27h-46c0 14 -2.66699 23 -8 27s-10.666 6 -15.999 6s-10 -1.83301 -14 -5.5s-6 -8.83398 -6 -15.501
c0 -2.66699 0.666992 -6.5 2 -11.5s7.33301 -11.167 18 -18.5l-39 -39c-11.333 7.33301 -21.5 17 -30.5 29s-13.5 24.667 -13.5 38c0 10.667 2.16699 20.834 6.5 30.501s10.166 18 17.499 25s15.833 12.667 25.5 17s20.167 6.5 31.5 6.5c9.33301 0 18.333 -1.33301 27 -4
s16 -7.66699 22 -15c7.33301 7.33301 15.166 12.333 23.499 15s17.166 4 26.499 4c21.333 0 39.666 -7 54.999 -21s23.666 -32 24.999 -54c0 -4 -0.666992 -8 -2 -12h11c3.33301 0 5.66602 0.333008 6.99902 1l35 -1v-56z" />
    <glyph glyph-name="maichattawalowleftthai" unicode="&#xf708;" 
d="M-209 575v-56h-63v55h-55v59h55v56h63v-55h55v-59h-55z" />
    <glyph glyph-name="thanthakhatlowleftthai" unicode="&#xf709;" 
d="M-226 574c-1.33301 0 -3.16602 -0.665039 -5.49902 -1.99805s-3.5 -3.66602 -3.5 -6.99902c0 -2.66699 1 -4.83398 3 -6.50098s6.66699 -6.16699 14 -13.5l-42 -42c-12.667 12 -21.5 22.667 -26.5 32s-7.5 19.666 -7.5 30.999c0 21.333 6.16699 38.166 18.5 50.499
s29.166 18.5 50.499 18.5h86v-61h-87z" />
    <glyph glyph-name="maieklowrightthai" unicode="&#xf70a;" 
d="M-105 519v151h65v-150z" />
    <glyph glyph-name="maitholowrightthai" unicode="&#xf70b;" 
d="M-228 519l13.001 18.001l16 22l14 20c4 6 6 9.66699 6 11c0 11.333 -6 17 -18 17c-5.33301 0 -9.33301 -2 -12 -6l-41 41c8 8 16.667 13.667 26 17s18.666 5 27.999 5c22 0 39.833 -6.66699 53.5 -20s20.5 -30 20.5 -50c0 -6.66699 -1.33301 -11.334 -4 -14.001h15h111
v-60z" />
    <glyph glyph-name="maitrilowrightthai" unicode="&#xf70c;" 
d="M-168 519l20.0049 36.498c7.33301 13.667 11 23.834 11 30.501s-2.33301 11.834 -7 15.501s-9.66699 5.5 -15 5.5c-4 0 -9.16699 -2 -15.5 -6s-9.5 -13 -9.5 -27h-46c0 14 -2.66699 23 -8 27s-10.666 6 -15.999 6s-10 -1.83301 -14 -5.5s-6 -8.83398 -6 -15.501
c0 -2.66699 0.666992 -6.5 2 -11.5s7.33301 -11.167 18 -18.5l-39 -39c-11.333 7.33301 -21.5 17 -30.5 29s-13.5 24.667 -13.5 38c0 10.667 2.16699 20.834 6.5 30.501s10.166 18 17.499 25s15.833 12.667 25.5 17s20.167 6.5 31.5 6.5c9.33301 0 18.333 -1.33301 27 -4
s16 -7.66699 22 -15c7.33301 7.33301 15.166 12.333 23.499 15s17.166 4 26.499 4c21.333 0 39.666 -7 54.999 -21s23.666 -32 24.999 -54c0 -4 -0.666992 -8 -2 -12h11c3.33301 0 5.66602 0.333008 6.99902 1h61v-57z" />
    <glyph glyph-name="maichattawalowrightthai" unicode="&#xf70d;" 
d="M-40 575v-56h-63v55h-55v59h55v56h63v-55h55v-59h-55z" />
    <glyph glyph-name="thanthakhatlowrightthai" unicode="&#xf70e;" 
d="M-108 574c-1.33301 0 -3.16699 -0.666016 -5.5 -1.99902s-3.5 -3.66602 -3.5 -6.99902c0 -2.66699 1 -4.83398 3 -6.50098s6.33301 -6.16699 13 -13.5l-42 -42c-12.667 12 -21.5 22.667 -26.5 32s-7.5 19.666 -7.5 30.999c0 22 6.33301 39 19 51s29.667 18 51 18h85v-61
h-86z" />
    <glyph glyph-name="yoyingnobasethai" unicode="&#xf70f;" horiz-adv-x="745" 
d="M705 157c0 -22.667 -4.50098 -43.9971 -13.501 -63.9971s-21.333 -37.333 -37 -52s-34 -26.334 -55 -35.001s-43.5 -13 -67.5 -13s-46.5 4.33301 -67.5 13s-39.333 20.334 -55 35.001s-28 32 -37 52s-13.5 41.333 -13.5 64v102c0 20 -3.5 38.167 -10.5 54.5
s-17 30.166 -30 41.499s-28.5 20.166 -46.5 26.499s-38 9.5 -60 9.5c-22.667 0 -44.334 -5.16699 -65.001 -15.5s-38 -23.5 -52 -39.5l30 -33v-239h67v-64h-134v281l-47 50c22 38 50.5 68.333 85.5 91s73.5 34 115.5 34c31.333 0 60.166 -4.83301 86.499 -14.5
s49 -23.334 68 -41.001s33.667 -38.5 44 -62.5s15.5 -50.333 15.5 -79v-102c0 -13.333 2.83301 -26 8.5 -38s13.334 -22.5 23.001 -31.5s20.834 -16.167 33.501 -21.5s26.334 -8 41.001 -8c30 0 55 9 75 27s30 42 30 72v294l68 -1v-293z" />
    <glyph glyph-name="maihanakatleftthai" unicode="&#xf710;" 
d="M-217 519c-19.333 0 -36 7.16797 -50 21.501s-21 31.166 -21 50.499v41h63v-41c0 -5.33301 2.66699 -8 8 -8h237v-63z" />
    <glyph glyph-name="nikhahitleftthai" unicode="&#xf711;" 
d="M-155 575c0 -19.333 -7 -36 -21 -50s-31 -21 -51 -21c-19.333 0 -36.166 7 -50.499 21s-21.5 30.667 -21.5 50c0 20 7.16699 37 21.5 51s31.166 21 50.499 21c20 0 37 -7 51 -21s21 -31 21 -51zM-203 575c0 6.66699 -2.33301 12.167 -7 16.5s-10.334 6.5 -17.001 6.5
s-12.167 -2.16699 -16.5 -6.5s-6.5 -9.83301 -6.5 -16.5s2.16699 -12.334 6.5 -17.001s9.83301 -7 16.5 -7s12.334 2.33301 17.001 7s7 10.334 7 17.001z" />
    <glyph glyph-name="maitaikhuleftthai" unicode="&#xf712;" 
d="M-333 644c-9.33301 0 -16.167 -4.00195 -20.5 -12.002s-6.5 -15.667 -6.5 -23s2.16699 -14.666 6.5 -21.999s11.5 -11 21.5 -11c7.33301 0 13.5 3 18.5 9s7.5 15.333 7.5 28h58c0 -13.333 2 -22.833 6 -28.5s9.66699 -8.5 17 -8.5c16 0 24 12.333 24 37h58
c0 -30 -7.83301 -53.167 -23.5 -69.5s-34.834 -24.5 -57.501 -24.5c-21.333 0 -39 7 -53 21c-6 -7.33301 -13.667 -12.666 -23 -15.999s-19 -5 -29 -5c-25.333 0 -46.166 8.5 -62.499 25.5s-24.5 38.167 -24.5 63.5c0 28.667 8 51.5 24 68.5s37 25.5 63 25.5h204v-58h-208z
" />
    <glyph glyph-name="maiekupperleftthai" unicode="&#xf713;" 
d="M-204 683v123h62v-123h-62z" />
    <glyph glyph-name="maithoupperleftthai" unicode="&#xf714;" 
d="M-263 683c2.66699 4 6.66797 9.66699 12.001 17s10.5 14.833 15.5 22.5l13 20.5c3.66699 6 5.5 9.66699 5.5 11c0 12 -4.66699 18 -14 18c-6.66699 0 -11.334 -2 -14.001 -6l-40 40c14.667 14.667 32.334 22 53.001 22c21.333 0 39.166 -7 53.499 -21s21.5 -31 21.5 -51
c0 -6 -1.33301 -10.333 -4 -13h15l106 1v-61h-223z" />
    <glyph glyph-name="maitriupperleftthai" unicode="&#xf715;" 
d="M-192 682l26.999 51c1.33301 2.66699 2 5.33398 2 8.00098c0 3.33301 -1.33301 6.5 -4 9.5s-5.66699 4.5 -9 4.5s-6.83301 -1.33301 -10.5 -4s-5.5 -9.33398 -5.5 -20.001h-52c0 9.33301 -1.33301 15.666 -4 18.999s-6.33398 5 -11.001 5c-4 0 -7.16699 -1.66699 -9.5 -5
s-3.5 -6.66602 -3.5 -9.99902c0 -1.33301 0.5 -4.5 1.5 -9.5s6.5 -10.167 16.5 -15.5l-40 -39c-13.333 11.333 -22.666 22 -27.999 32s-8 20.667 -8 32c0 19.333 7 36 21 50s30.667 21 50 21c7.33301 0 15 -1.5 23 -4.5s14 -7.16699 18 -12.5
c4 4.66699 9.83301 8.66699 17.5 12s15.5 5 23.5 5c19.333 0 35.833 -6.83301 49.5 -20.5s20.834 -30.167 21.501 -49.5h66v-58z" />
    <glyph glyph-name="maichattawaupperleftthai" unicode="&#xf716;" 
d="M-143 722v-44h-63v43h-42v54h42v44h63v-43h42v-54h-42z" />
    <glyph glyph-name="thanthakhatupperleftthai" unicode="&#xf717;" 
d="M-167 701c-1.33301 0 -3.16602 -0.833984 -5.49902 -2.50098s-3.5 -4.16699 -3.5 -7.5c0 -2 0.833008 -4.5 2.5 -7.5s6.16699 -7.5 13.5 -13.5l-42 -41c-13.333 12.667 -22.333 23.834 -27 33.501s-7 19.167 -7 28.5c0 19.333 6.66699 35.833 20 49.5
s29.666 20.5 48.999 20.5h70v-60h-70z" />
    <glyph glyph-name="saraulowthai" unicode="&#xf718;" 
d="M-103 -343v80h-40v63h68c10 0 18.333 -3.33301 25 -10s10 -15 10 -25v-108h-63z" />
    <glyph glyph-name="sarauulowthai" unicode="&#xf719;" 
d="M-40 -269c0 -12 -2.3291 -23.332 -6.99609 -33.999s-10.834 -19.834 -18.501 -27.501s-16.667 -13.834 -27 -18.501s-21.5 -7 -33.5 -7s-23.333 2.33301 -34 7s-19.834 10.834 -27.501 18.501s-13.834 16.667 -18.501 27s-7 21.5 -7 33.5v7h-40v63h103v-69
c0 -6.66699 2 -12.334 6 -17.001s9.66699 -7 17 -7s13.166 2.33301 17.499 7s6.5 10.334 6.5 17.001v69h63v-70v1z" />
    <glyph glyph-name="phinthulowthai" unicode="&#xf71a;" 
d="M-29 -238c0 -12.667 -4.33301 -23.167 -13 -31.5s-19 -12.5 -31 -12.5s-22.333 4.16699 -31 12.5s-13 18.5 -13 30.5c0 12.667 4.33301 23.167 13 31.5s19 12.5 31 12.5s22.333 -4.16699 31 -12.5s13 -18.833 13 -31.5v1z" />
    <glyph glyph-name="lochula.short" unicode="&#xf71d;" horiz-adv-x="527" 
d="M487 478c0 -14.667 -1.66504 -27.6699 -4.99805 -39.0029s-9.66602 -20.666 -18.999 -27.999c9.33301 -10.667 15.666 -22.167 18.999 -34.5s5 -26.166 5 -41.499v-215c0 -17.333 -3.33301 -33.5 -10 -48.5s-15.834 -28.167 -27.501 -39.5
s-25.334 -20.166 -41.001 -26.499s-32.5 -9.5 -50.5 -9.5c-18.667 0 -36.167 3.66699 -52.5 11s-30.5 17.333 -42.5 30c-11.333 -12.667 -25.166 -22.667 -41.499 -30s-34.166 -11 -53.499 -11c-17.333 0 -33.833 3.16699 -49.5 9.5s-29.334 15.166 -41.001 26.499
s-20.834 24.5 -27.501 39.5s-10 31.167 -10 48.5v330h67v-330c0 -16 5.83301 -29.833 17.5 -41.5s26.167 -17.5 43.5 -17.5s32 5.83301 44 17.5s18 25.834 18 42.501v198h67v-199c0 -16.667 5.83301 -30.667 17.5 -42s26.167 -17 43.5 -17s32 5.83301 44 17.5
s18 25.5 18 41.5v214c0 20.667 -4.5 35.167 -13.5 43.5s-20.5 12.5 -34.5 12.5h-56v60h59c19.333 0 31.833 1.66699 37.5 5s8.5 11.333 8.5 24l1 19h65v-20z" />
    <glyph glyph-name="rulakkhangyao" unicode="&#xf881;" horiz-adv-x="649" 
d="M617 -170l-66 0.000976562v453c0 34.667 -8.5 61.667 -25.5 81s-42.5 29 -76.5 29c-24.667 0 -45.667 -5.66699 -63 -17c12 -16 21.333 -34 28 -54s10 -41 10 -63v-430h-66l-1 430c0 19.333 -3.5 37.166 -10.5 53.499s-17 30.333 -30 42s-28.333 20.667 -46 27
s-36.834 9.5 -57.501 9.5c-22 0 -43.167 -5.33301 -63.5 -16s-37.5 -24 -51.5 -40l30 -33l1 -238h65v-65h-132v281l-46 51c21.333 38 49.333 68.333 84 91s72.334 34 113.001 34c48 0 89.667 -11.667 125 -35c29.333 23.333 66.666 35 111.999 35
c28.667 0 53.5 -4.5 74.5 -13.5s38.333 -21 52 -36s23.834 -32.333 30.501 -52s10 -40.5 10 -62.5v-462z" />
    <glyph glyph-name="lulakkhangyao" unicode="&#xf882;" horiz-adv-x="649" 
d="M617 -170h-66.001v453c0 34.667 -8.5 61.667 -25.5 81s-42.5 29 -76.5 29c-24.667 0 -45.667 -5.66699 -63 -17c12 -16 21.333 -34 28 -54s10 -41 10 -63v-430h-67v430c0 20 -3.5 38 -10.5 54s-17 29.833 -30 41.5s-28.333 20.667 -46 27s-36.834 9.5 -57.501 9.5
c-22 0 -43.167 -5.16699 -63.5 -15.5s-37.166 -23.5 -50.499 -39.5l30 -33v-304h-110v65h43v216l-46 51c21.333 38 49.333 68.333 84 91s72.334 34 113.001 34c48 0 89.667 -11.667 125 -35c29.333 23.333 66.666 35 111.999 35c28.667 0 53.5 -4.5 74.5 -13.5
s38.333 -21 52 -36s23.834 -32.333 30.501 -52s10 -40.5 10 -62.5v-462z" />
    <glyph glyph-name=".null" 
 />
    <glyph glyph-name="nonmarkingreturn" horiz-adv-x="283" 
 />
    <glyph glyph-name="yamakkanleftthai" 
d="M-151 680c-6 6 -11.165 10.1631 -15.498 12.4961s-8.83301 3.5 -13.5 3.5c-9.33301 0 -17.333 -3.16699 -24 -9.5s-10 -14.166 -10 -23.499s3.66699 -17.166 11 -23.499s18.666 -9.5 33.999 -9.5v-47c-15.333 0 -26.666 -3.16699 -33.999 -9.5s-11 -14.166 -11 -23.499
s3.66699 -17.166 11 -23.499s18.666 -9.5 33.999 -9.5v-47c-28 0 -50.5 7.83301 -67.5 23.5s-25.5 34.5 -25.5 56.5s8 40.667 24 56c-16 16 -24 35 -24 57s7.83301 40.833 23.5 56.5s35.167 23.5 58.5 23.5c21.333 0 42.666 -10 63.999 -30z" />
    <glyph glyph-name="saraamleft" horiz-adv-x="340" 
d="M300 0l-67.001 -0.00195312v285c0 34.667 -8.5 61.334 -25.5 80.001s-42.5 28 -76.5 28c-16.667 0 -31.667 -2.66699 -45 -8s-27.333 -15.666 -42 -30.999l-46 46c20.667 20 41.667 34.333 63 43s45.333 13 72 13c28.667 0 53.5 -4.33301 74.5 -13s38.333 -20.5 52 -35.5
s23.834 -32.333 30.501 -52s10 -40.5 10 -62.5v-293zM-155.001 574.998c0 -19.333 -7 -36 -21 -50s-31 -21 -51 -21c-19.333 0 -36.166 7 -50.499 21s-21.5 30.667 -21.5 50c0 20 7.16699 37 21.5 51s31.166 21 50.499 21c20 0 37 -7 51 -21s21 -31 21 -51z
M-203.001 574.998c0 6.66699 -2.33301 12.167 -7 16.5s-10.334 6.5 -17.001 6.5s-12.167 -2.16699 -16.5 -6.5s-6.5 -9.83301 -6.5 -16.5s2.16699 -12.334 6.5 -17.001s9.83301 -7 16.5 -7s12.334 2.33301 17.001 7s7 10.334 7 17.001z" />
    <glyph glyph-name="uni0E33.alt1" horiz-adv-x="340" 
d="M300 0l-67.001 -0.00195312v285c0 34.667 -8.5 61.334 -25.5 80.001s-42.5 28 -76.5 28c-16.667 0 -31.667 -2.66699 -45 -8s-27.333 -15.666 -42 -30.999l-46 46c20.667 20 41.667 34.333 63 43s45.333 13 72 13c28.667 0 53.5 -4.33301 74.5 -13s38.333 -20.5 52 -35.5
s23.834 -32.333 30.501 -52s10 -40.5 10 -62.5v-293zM-155.001 574.998c0 -19.333 -7 -36 -21 -50s-31 -21 -51 -21c-19.333 0 -36.166 7 -50.499 21s-21.5 30.667 -21.5 50c0 20 7.16699 37 21.5 51s31.166 21 50.499 21c20 0 37 -7 51 -21s21 -31 21 -51z
M-203.001 574.998c0 6.66699 -2.33301 12.167 -7 16.5s-10.334 6.5 -17.001 6.5s-12.167 -2.16699 -16.5 -6.5s-6.5 -9.83301 -6.5 -16.5s2.16699 -12.334 6.5 -17.001s9.83301 -7 16.5 -7s12.334 2.33301 17.001 7s7 10.334 7 17.001z" />
    <glyph glyph-name="sarainarrowthai" 
d="M-384 520v63h344v-63h-344z" />
    <glyph glyph-name="saraiinarrowthai" 
d="M-384 520v63h281v60h63v-123h-344z" />
    <glyph glyph-name="sarauenarrowthai" 
d="M-34 582c0 -17.333 -6.00195 -31.999 -18.002 -43.999s-26.333 -18 -43 -18h-289v63h227c0.666992 17.333 6.83398 31.666 18.501 42.999s25.834 17 42.501 17c17.333 0 32 -5.83301 44 -17.5s18 -26.167 18 -43.5zM-75.002 581.001
c0 5.33301 -2.16699 10.166 -6.5 14.499s-9.16602 6.5 -14.499 6.5s-10.166 -2.16699 -14.499 -6.5s-6.5 -9.16602 -6.5 -14.499s2.16699 -10.166 6.5 -14.499s9.16602 -6.5 14.499 -6.5s10.166 2.16699 14.499 6.5s6.5 9.16602 6.5 14.499z" />
    <glyph glyph-name="saraueenarrowthai" 
d="M-384 520v63h176v60h62v-60h43v60h63v-123h-344z" />
    <glyph glyph-name="sarauchochanthai" 
d="M-193 -188v80h-40v64h68c10 0 18.333 -3.5 25 -10.5s10 -15.167 10 -24.5v-109h-63z" />
    <glyph glyph-name="sarauuchochanthai" 
d="M-80 -114c0 -12 -2.33105 -23.3311 -6.99805 -33.998s-10.834 -19.834 -18.501 -27.501s-16.667 -13.834 -27 -18.501s-21.5 -7 -33.5 -7c-24 0 -44.5 8.5 -61.5 25.5s-25.5 37.5 -25.5 61.5v6h-40v64h103v-70c0 -6.66699 2.16699 -12.334 6.5 -17.001
s9.83301 -7 16.5 -7c7.33301 0 13.166 2.33301 17.499 7s6.5 10.334 6.5 17.001v70h63v-70z" />
    </font>
</defs>
</svg>
